благодарю!!ромалэ
ЯндексЯндекс. ДеньгиХочу такую же кнопку

http://murrshako-rom.ucoz.ru$724.67$724.67Сколько стоит ваш?

ФИЛЬМЫ В 3D ФОРМАТЕ без черных полос (во весь 3D экран - Страница 11 - ЦЫГАНЕ=ROMA=Cingaris=GYPSIES=CIGANOS=吉普賽人=ZINGARI=जिप्सФорум
RADIO

GIPSY VOICE
radio

ЦЫГАНСКИЕ СТРУНЫ
радио

Вторник, 30.05.2017, 08:34
Главная
Регистрация
Вход
Цыганский портал!!!приветствую ромалэ!!зачан!!
Приветствую Вас Гость | RSS
[ Новые сообщения · Участники · Правила форума · Поиск · RSS ]
Страница 11 из 16«129101112131516»
ЦЫГАНЕ=ROMA=Cingaris=GYPSIES=CIGANOS=吉普賽人=ZINGARI=जिप्सФорум » ЦЫГАНСКИЙ РАЗДЕЛ » ЦЫГАНСКИЕ-ИНДИЙСКИЕ-ЗАРУБЕЖНЫЕ-ОТЕЧЕСТВ- ФИЛЬМЫ-ОНЛАЙН » ФИЛЬМЫ В 3D ФОРМАТЕ без черных полос (во весь 3D экран (3D проекты +2D--3D Конвертация)
ФИЛЬМЫ В 3D ФОРМАТЕ без черных полос (во весь 3D экран
murrshakoДата: Четверг, 07.08.2014, 15:32 | Сообщение # 1
Группа: Администраторы
Сообщений: 2041
Репутация: 55
Статус: Offline

ИНФА БУДЕТ ПОПОЛНЯТЬСЯ А ПОКА НА ПЕРВОЕ ВРЕМЯ -ПОЧИТАТЬ ОБЩИЕ ПОНЯТИЯ О 3Д ФОРМАТЕ

О методах просмотра 3D
Anaglyph / Анаглиф
Стереопары
Blu-Ray 3D
Бюджетные методы просмотра 3D (без 3D оборудования)
Просмотр стереопар и Blu-Ray 3D в анаглифе
Просмотр стереопар 'косоглазием' / cross-eye
Просмотр стереопар с помощью самодельных призматических/зеркальных очков
Просмотр стереопар с помощью зеркала / mirror split
ПЕРЕХОД УЗНАТЬ ПОДРОБНЕЕ-(НА ТРЕКЕРЕ НУЖНА РЕГИСТРАЦИЯ)


..................
Хотелось бы прояснить ситуацию (у каждого свое восприятие 3Д виртуального мира..кто то считает что 3Д это просто караул какой то и простое 2Д восприятие называют отстоем)-но по моему мнению...3Д технология находиться в начальной стадии и в связи с таким положением дел..вытекает такой вывод....
Не стоит ожидать что в этой теме вы найдете фильмы с глубокой смысловой нагрузкой...на данном этапе 3Д -это типа шоу или аттракциона делающего ставку на визуальное и нечего общего с глубоким смыслом.....
и ставка делается на подростковое поколение и детей ......для малышей 3Д мультики или 3Д эффект в играх-- это реально крутая фишка !!!


...................

ЕСЛИ ВЫ ПЕРЕШЛИ ПО ССЫЛКЕ И ВАС ВЫКИДЫВАЕТ НА ДРУГУЮ СТР...ТИПА

Доступно только для пользователей

ЗНАЧИТ ЭТОТ ТРЕККЕР ИМЕЕТ ОПЦИЮ РЕГИСТРАЦИИ.......НАДО ПРОСТО ПРОЙТИ РЕГИСТРАЦИЮ И РЕШИТЬ ПРОБЛЕМУ......КАК РЕЗУЛЬТАТ ...ВЫ СРАЗУ БУДЕТЕ ИМЕТЬ ВОЗМОЖНОСТЬ БЕЗ ЛИШНИХ ДВИЖЕНИЙ ДОБАВЛЯТЬ ФИЛЬМ В ТОРРЕНТ КЛИЕНТ ДЛЯ СКАЧИВАНИЯ ФИЛЬМА
.........................
СОВЕТУЮ САМЫЙ ПРОСТОЙ И ПОНЯТНЫЙ КЛИЕНТ ДЛЯ СКАЧИВАНИЯ ФИЛЬМОВ НА РУССКОМ ЯЗЫКЕ

Доступно только для пользователей


ПОДРОБНЫЙ ОБЗОР О ТЕХНОЛОГИИ 3Д

ПЕРЕХОД ПО ССЫЛКЕ



Прикрепления: 0334946.jpg(26Kb)


Сообщение отредактировал murrshako - Вторник, 20.01.2015, 15:22
 
murrshakoДата: Понедельник, 29.12.2014, 21:28 | Сообщение # 51
Группа: Администраторы
Сообщений: 2041
Репутация: 55
Статус: Offline


Матрица / Matrix (1999) [Half SideBySide / Горизонтальная анаморфная пара]



Convert 2D>3D (no ghost)
Оригинальное название: The Matrix
Страна: США, Австралия, Groucho II Film Partnership, Silver Pictures, Village Roadshow Pictures, Warner Bros. Pictures Co.
Дата выхода: 02:16:09
Жанр: Фантастика, боевик, приключения, антиутопия
Режиссёр: Энди Вачовски, Ларри Вачовски
В ролях: Киану Ривз, Лоуренс Фишборн, Кэрри-Энн Мосс, Хьюго Уивинг, Глория Фостер, Джо Пантолиано, Маркус Чонг, Джулиан Араханга, Ада Никодему, Мэтт Доран, Белинда МакКлори
О фильме: Что есть реальность? Есть ли у человека выбор? Действительно ли мы живём или только представляем, что живём, а на самом деле жив только один человеческий орган - мозг, да и тот пребывает в вечном сне. Если это так, то способны ли мы самостоятельно пробудиться или потребуется помощь, возможно, извне? Кто или что и с какой целью усыпило миллиарды людей? Ответы на эти и многие другие вопросы Нео, известный также как Томас Андерсон, получит от легендарного и неуловимого незнакомца Морфиуса. Он вытащит Нео из цепких лап Матрицы, расскажет, что произошло с Землёй в двадцать первом веке, научит многому и покажет казавшееся невозможным доселе... Ведь Морфиус верит, что Нео - Избранный, освободитель человечества и единственный, кто поможет выиграть в неравной схватке с поработившими людей, но созданными ими самими машинами.
Скриншоты

MediaInfo

Перевод: Дублированный
Контейнер: mkv
Формат аудио: AC3

Размер: 9.25 ГБ (9 929 255 884 байт)
Приватный: Нет (DHT включён)
Хэш: a106d1ac32c0a632da1f
6a4bbaf8442ec43d206d
Здоровье: 100%
.torrent скачан: 25

Доступно только для пользователей

Смотреть 2Д ВЕРСИЮ Матрица (HD-720 качество) / The Matrix (1999) онлайн

Доступно только для пользователей





Прикрепления: 7080861.jpg(229Kb)


Сообщение отредактировал murrshako - Вторник, 30.12.2014, 14:00
 
murrshakoДата: Вторник, 30.12.2014, 15:27 | Сообщение # 52
Группа: Администраторы
Сообщений: 2041
Репутация: 55
Статус: Offline



125 км до Мумбаи 3Д / Mumbai 125 KM 3D (2014) [WEB-DL, 720p, 60 fps] Crop Half OverUnder / Горизонтальная анаморфная стереопара Без черных полос





Название: 125 км до Мумбаи
Оригинальное название: Mumbai 125 KM
Год выпуска: 2014
Жанр: Ужасы, мистика
Выпущено: Индия, A Light and Shadow Films, Mahati Multimedia
Режиссер: Хемант Мадхукар

В ролях: Вина Малик, Апарна Баджпаи, Каранвир Бохра, Джой Деброй, Видже Бхатия, Ведита Пратап Сингх, Раджив Ананд
О фильме: Пятеро молодых людей, выиграв билеты на празднование Нового Года, отправляются в Мумбаи на машине. Внезапно, некая женщина в окровавленном белом платье начинает преследовать молодых ребят и убивать их по одному. Пытаясь спасти свои жизни, друзья пытаются уехать с злосчастного места, но не тут-то было. Как бы они не старались доехать до Мумбаи, до него всегда остаётся 125 км….

Качество: WEB-DL [720р]
Видео: MPEG-4 AVC, 5777 Кбит/с, 60 кадр/с
Аудио: Русский АС3, 6 ch, 448 Кбит/с
Размер: 3,99 Гб
Продолжительность: 01:31:34
Перевод: Любительский двухголосый (den904&DeadSno)

Формат 3D: Crop Half SideBySide / Горизонтальная анаморфная стереопара Без черных полос
Порядок ракурсов: левый ракурс первый.
Контейнер: Matroska

Размер: 3.99 ГБ (4 280 724 753 байт)
Приватный: Нет (DHT включён)
Хэш: 852b09891514b2f29b40
f7faef7a83dc142b5e38
Здоровье: 100%
.torrent скачан: 2

Доступно только для пользователей



125км до Мумбаи / Mumbai 125 KM 3D (2014) смотреть 2д версию фильма онлайн в качестве 480р -широкоэкранка с черными полосами



Смотреть 125 км до Мумбаи (HD-720 качество) Mumbai 125 KM 3D (2014) онлайн

Доступно только для пользователей





Прикрепления: 0011912.jpg(158Kb) · 2380408.jpg(9Kb)


Сообщение отредактировал murrshako - Среда, 31.12.2014, 14:11
 
murrshakoДата: Суббота, 10.01.2015, 13:34 | Сообщение # 53
Группа: Администраторы
Сообщений: 2041
Репутация: 55
Статус: Offline

ТАБОР УХОДИТ В НЕБО 1975 В 3D ФОРМАТЕ


Табор уходит в небо

picГод выпуска: 1976
Жанр: драма
Продолжительность: 95 минут

Режиссер: Эмиль Лотяну

В ролях: Григоре Григориу, Светлана Тома, Барасби Мулаев, Иван Шкуря, Павел Андрейченко, Серджу Финити, Борислав Брондуков, Ляля Черная, Нелли Волшанинова, Михаил Шишков, Николай Волшанинов, Василий Симчич, Елена Садовская

Описание: Удивительно поэтичный фильм о романтической, прекрасной и трагической любви удалого цыгана Лойко Зобара и гордой красавицы Радды. Красочная лента снята по мотивам ранних рассказов М. Горького.

Лидер проката (1976, 1 место) - 64.9 млн. зрителей. "Золотая раковина" МКФ в Сан-Себастьяне-76. "Лучший фильм 1976 года" на МКФ "Фест" в Белграде-77. Почетный диплом технического конкурса фильмов в рамках конгресса УНИАТЕК в Париже-79; Светлана Тома - лучшая актриса 1976 года по опросу журнала "Советский экран"

Доп. информация: Издание от Руссико. Несколько звуковых дорожек, субтитры. Дполнительные материалы - интервью со Светланой Тома, Евгением Догой и другие. Изображение как минимум не хуже чем у КП. Сравнение изданий на сайте Бартона:
Duration : 15mn 33s
Overall bit rate mode : Variable
Overall bit rate : 8 330 Kbps
Writing application : Lavf54.59.106

Video
ID : 1
Format : AVC
Format/Info : Advanced Video Codec
Format profile : Baseline@L4.0
Format settings, CABAC : No
Format settings, ReFrames : 2 frames
Codec ID : avc1
Codec ID/Info : Advanced Video Coding
Duration : 15mn 33s
Bit rate : 8 000 Kbps
Width : 1 920 pixels
Height : 1 080 pixels
Display aspect ratio : 16:9
Frame rate mode : Constant
Frame rate : 29.970 fps
Color space : YUV
Chroma subsampling : 4:2:0
Bit depth : 8 bits
Scan type : Progressive
Bits/(Pixel*Frame) : 0.129
Stream size : 909 MiB (98%)
Writing library : x264 core 135
Encoding settings : cabac=0 / ref=2 / deblock=1:0:0 /

Audio
ID : 2
Format : AAC
Format/Info : Advanced Audio Codec
Format profile : LC
Codec ID : 40
Duration : 15mn 32s
Duration_LastFrame : -1ms
Bit rate mode : Variable
Bit rate : 152 Kbps
Maximum bit rate : 192 Kbps
Channel(s) : 2 channels
Channel positions : Front: L R
Sampling rate : 44.1 KHz
Compression mode : Lossy
Stream size : 16.9 MiB (2%)



ФИЛЬМ РАЗДЕЛЕН НА 7 ЧАСТЕЙ (СКАЧИВАЕМ ВСЕ ПО ПОРЯДКУ И СМОТРИМ НА КОМПЕ -ПЛЕЕР САМ ВОСПР ВСЕ ПО ПОРЯДКУ
ИЛИ МОЖНО СКИНУТЬ 7 ЧАСТЕЙ НА ФЛЕШКУ И СМОТРЕТЬ ЧЕРЕЗ ВСТРОЕННЫЙ ПЛЕЕР В ТЕЛЕВИЗОРА
Доступно только для пользователей

Доступно только для пользователей

3Д СКРИНШОТЫ







Доступно только для пользователей


Сообщение отредактировал murrshako - Суббота, 10.01.2015, 13:45
 
murrshakoДата: Понедельник, 12.01.2015, 15:24 | Сообщение # 54
Группа: Администраторы
Сообщений: 2041
Репутация: 55
Статус: Offline

3D ВЕРСИЯ ФИЛЬМА Вечная сказка любви / Dharam Veer (Манмохан Десаи / Manmohan Desai) [1977 г., Мелодрама, DVDRip]
ГОРИЗОНТАЛЬНАЯ СТЕРЕОПАРА 1280-1080Р 29-9 FPS
ВО ВЕСЬ ЭКРАН БЕЗ ЧЕРНЫХ ПОЛОС

50\VTS_01_2.mp4
Format : MPEG-4
Format profile : Base Media
Codec ID : isom
File size : 1.04 GiB
Duration : 17mn 50s
Overall bit rate mode : Variable
Overall bit rate : 8 320 Kbps
Encoded date : UTC 2015-01-11 04:52:14
Tagged date : UTC 2015-01-11 04:52:14

Video
ID : 1
Format : AVC
Format/Info : Advanced Video Codec
Format profile : Baseline@L4.0
Format settings, CABAC : No
Format settings, ReFrames : 2 frames
Codec ID : avc1
Codec ID/Info : Advanced Video Coding
Duration : 17mn 50s
Bit rate : 8 000 Kbps
Width : 1 920 pixels
Height : 1 080 pixels
Display aspect ratio : 16:9
Frame rate mode : Constant
Frame rate : 24.000 fps
Color space : YUV
Chroma subsampling : 4:2:0
Bit depth : 8 bits
Scan type : Progressive
Bits/(Pixel*Frame) : 0.161
Stream size : 1.03 GiB (99%)
Writing library : x264 core 135
Encoding s

Audio
ID : 2
Format : AAC
Format/Info : Advanced Audio Codec
Format profile : LC
Codec ID : 40
Duration : 17mn 50s
Bit rate mode : Variable
Bit rate : 72.0 Kbps
Maximum bit rate : 192 Kbps
Channel(s) : 6 channels
Channel positions : Front: L C R, Side: L R, LFE
Sampling rate : 44.1 KHz
Compression mode : Lossy
Stream size : 9.54 MiB (1%)
Tagged date : UTC 2015-01-11 04:53:59

СКАЧАТЬ ФИЛЬМ В КАЧЕСТВЕ 3Д ВЕРСИЯ 1280-1080Р ЗВУК 5.1 24 FPS

Я ПРИНОШУ СВОИ ИЗВИНЕНИЯ ЗА НЕУДОБСТВО ЧТО ФИЛЬМ РАЗБИТ НА НЕСКОЛЬКО ЧАСТЕЙ И НУЖНО СНАЧАЛА СКАЧАТЬ ВСЕ ЧАСТИ А ПОТОМ ПЕРЕМЕСТИТЬ НА ФЛЕШКУ И СМОТРЕТЬ НА ВСТРОЕННОМ ПЛЕЕРЕ ТЕЛЕВИЗОРА ИЛИ МОЖНО СМОТРЕТЬ НА КОМПЕ =НО ЕСТЬ И + ТАК КАК ЕСЛИ ЗАЛИТЬ НА ТОРРЕНТ ТО ПРИШЛОСЬ ИМЕТЬ ЗАВИСИМОСТЬ ОТ КОЛИЧЕСТВА ЛЮДЕЙ ИМЕЮЩИХ ФИЛЬМ......А В НАШЕМ ВАРИАНТЕ РЕАЛЬНО СКАЧАТЬ НА ПРЕДЕЛЬНОЙ СКОРОСТИ БЕЗ ОЧЕРЕДИ И БЕСПЛАТНО ОТ
Доступно только для пользователей

Доступно только для пользователей

Доступно только для пользователей

Доступно только для пользователей

Доступно только для пользователей

Доступно только для пользователей


СКРИНШОТЫ







Прикрепления: 3223455.jpg(829Kb) · 8332650.jpg(726Kb) · 0539639.jpg(1108Kb) · 6378796.jpg(897Kb) · 9423938.jpg(934Kb)


Сообщение отредактировал murrshako - Вторник, 13.01.2015, 13:47
 
murrshakoДата: Суббота, 17.01.2015, 15:42 | Сообщение # 55
Группа: Администраторы
Сообщений: 2041
Репутация: 55
Статус: Offline




3D ВЕРСИЯ
Кобра / Nagin (Раджкумар Кохли) [1976 г., драма,мистика, ГОРИЗОНТАЛЬНАЯ анаморфная СТЕРЕОПАРА 1280-1080Р 29-9 FPS
ВО ВЕСЬ ЭКРАН БЕЗ ЧЕРНЫХ ПОЛОС





Format : MPEG-4
Format profile : Base Media
Codec ID : isom
File size : 1.47 GiB
Duration : 34mn 28s
Overall bit rate mode : Variable
Overall bit rate : 6 114 Kbps
Writing application : Lavf54.59.106

Video
ID : 1
Format : AVC
Format/Info : Advanced Video Codec
Format profile : Baseline@L4.0
Format settings, CABAC : No
Format settings, ReFrames : 2 frames
Codec ID : avc1
Codec ID/Info : Advanced Video Coding
Duration : 34mn 28s
Bit rate : 6 000 Kbps
Width : 1 920 pixels
Height : 1 080 pixels
Display aspect ratio : 16:9
Frame rate mode : Constant
Frame rate : 29.970 fps
Color space : YUV
Chroma subsampling : 4:2:0
Bit depth : 8 bits
Scan type : Progressive
Bits/(Pixel*Frame) : 0.097

Audio
ID : 2
Format : AAC
Format/Info : Advanced Audio Codec
Format profile : LC
Codec ID : 40
Duration : 34mn 28s
Bit rate mode : Variable
Bit rate : 96.0 Kbps
Maximum bit rate : 192 Kbps
Channel(s) : 6 channels
Channel positions : Front: L C R, Side: L R, LFE
Sampling rate : 44.1 KHz
Compression mode : Lossy
Stream size : 23.9 MiB (2%)

СКРИНШОТЫ






СКОРО СКАЧАТЬ ФИЛЬМ В КАЧЕСТВЕ 3Д ВЕРСИЯ 1280-1080Р ЗВУК 5.1 24 FPS

Я ПРИНОШУ СВОИ ИЗВИНЕНИЯ ЗА НЕУДОБСТВО ЧТО ФИЛЬМ РАЗБИТ НА НЕСКОЛЬКО ЧАСТЕЙ И НУЖНО СНАЧАЛА СКАЧАТЬ ВСЕ ЧАСТИ А ПОТОМ ПЕРЕМЕСТИТЬ НА ФЛЕШКУ И СМОТРЕТЬ НА ВСТРОЕННОМ ПЛЕЕРЕ ТЕЛЕВИЗОРА ИЛИ МОЖНО СМОТРЕТЬ НА КОМПЕ =НО ЕСТЬ И + ТАК КАК ЕСЛИ ЗАЛИТЬ НА ТОРРЕНТ ТО ПРИШЛОСЬ ИМЕТЬ ЗАВИСИМОСТЬ ОТ КОЛИЧЕСТВА ЛЮДЕЙ ИМЕЮЩИХ ФИЛЬМ......А В НАШЕМ ВАРИАНТЕ РЕАЛЬНО СКАЧАТЬ НА ПРЕДЕЛЬНОЙ СКОРОСТИ БЕЗ ОЧЕРЕДИ И БЕСПЛАТНО



Доступно только для пользователей

Доступно только для пользователей

Доступно только для пользователей

Доступно только для пользователей

Доступно только для пользователей


Прикрепления: 9721372.jpg(94Kb) · 8493497.jpg(532Kb) · 3097736.jpg(936Kb) · 8138033.jpg(1208Kb) · 2019722.jpg(764Kb)


Сообщение отредактировал murrshako - Вторник, 20.01.2015, 16:47
 
ЦЫГАНЕ=ROMA=Cingaris=GYPSIES=CIGANOS=吉普賽人=ZINGARI=जिप्सФорум » ЦЫГАНСКИЙ РАЗДЕЛ » ЦЫГАНСКИЕ-ИНДИЙСКИЕ-ЗАРУБЕЖНЫЕ-ОТЕЧЕСТВ- ФИЛЬМЫ-ОНЛАЙН » ФИЛЬМЫ В 3D ФОРМАТЕ без черных полос (во весь 3D экран (3D проекты +2D--3D Конвертация)
Страница 11 из 16«129101112131516»
Поиск:

тест скорости интернета
| Copyright MyCorp © 2017 | |