благодарю!!ромалэ
ЯндексЯндекс. ДеньгиХочу такую же кнопку

http://murrshako-rom.ucoz.ru$724.67$724.67Сколько стоит ваш?

ИНДИЙСКИЕ ФИЛЬМЫ ВСЕ ЖАНРЫ В 3D ФОРМАТЕ - Страница 2 - ЦЫГАНЕ=ROMA=Cingaris=GYPSIES=CIGANOS=吉普賽人=ZINGARI=जिप्सФорум
RADIO

GIPSY VOICE
radio

ЦЫГАНСКИЕ СТРУНЫ
радио

Воскресенье, 25.06.2017, 17:02
Главная
Регистрация
Вход
Цыганский портал!!!приветствую ромалэ!!зачан!!
Приветствую Вас Гость | RSS
[ Новые сообщения · Участники · Правила форума · Поиск · RSS ]
Страница 2 из 2«12
ЦЫГАНЕ=ROMA=Cingaris=GYPSIES=CIGANOS=吉普賽人=ZINGARI=जिप्सФорум » ЦЫГАНСКИЙ РАЗДЕЛ » ЦЫГАНСКИЕ-ИНДИЙСКИЕ-ЗАРУБЕЖНЫЕ-ОТЕЧЕСТВ- ФИЛЬМЫ-ОНЛАЙН » ИНДИЙСКИЕ ФИЛЬМЫ ВСЕ ЖАНРЫ В 3D ФОРМАТЕ (ВЕРТИКАЛЬНЫЕ И ГОРИЗОНТАЛЬНЫЕ Анаморфные стереопары)
ИНДИЙСКИЕ ФИЛЬМЫ ВСЕ ЖАНРЫ В 3D ФОРМАТЕ
murrshakoДата: Вторник, 23.02.2016, 14:18 | Сообщение # 6
Группа: Администраторы
Сообщений: 2044
Репутация: 55
Статус: Offline

Танцор диско / Disco Dancer
3D ГОРИЗОНТАЛЬНАЯ СТЕРЕОПАРА 1280-720Р (10000мб в сек)
Прекрасный подарок для все любителей индийского кино и в частности творчества Митхуна Чакраборти.



Страна: Индия
Жанр: Мелодрама
Год выпуска: 1982
Продолжительность: 02:14:25

Перевод: Профессиональный (дублированный) Советский
Cубтитры: Английские
Оригинальная аудиодорожка: Хинди

Режиссер: Баббар Субхаш / Babbar Subhash

В ролях: Митхун Чакраборти, Ким, Ом Пури, Юсуф Кхан, Боб Кристо, Мастер Чхоту

Описание: Прекрасный фильм о жизненной борьбе, любви и силе духа. Вечный сюжет о Золушке: восхождение из ничего к вершинам славы. Джимми - бедный ребенок, выступает с дядей на улицах, зарабатывая на кусок хлеба. Однако, мирное существование семьи нарушает инцидентв доме одного богача. После этого Джимми и его мать вынуждены покинуть родной город. Проходят годы. Джимми своим трудом и талантом добивается славы. Встречает он и свою любовь. И надо же случиться, чтобы его девушка оказалась дочерью богача, оскорбившегоДжимми и его мать много лет назад...

Доп. информация: Оригинальный DVD к нему добавлена рус. звук. дорожка с раздачи http://rutracker.org/forum/viewtopic.php?t=89289 Спасибо boniklad, за синхрон под этот релиз большое спасибо выражаю Нордеру Удалено предупреждение перед меню. Больше изменений НЕТ.
PS. На данный момент при сравнении 3х индийских девяток качество данной копии оказалась самым лучшим (круче и толще чем у Шимару)




СКРИНШОТЫ





Прикрепления: 8611325.png(484Kb) · 3548288.jpg(621Kb) · 1352695.jpg(558Kb) · 5885106.jpg(356Kb) · 4195794.jpg(531Kb)
 
murrshakoДата: Вторник, 23.02.2016, 14:25 | Сообщение # 7
Группа: Администраторы
Сообщений: 2044
Репутация: 55
Статус: Offline

МЕДИАИНФО

eneral
Complete name : D:\ЭКСПОРТ сони вегас про\Produce.mpg
Format : MPEG-PS
File size : 1.08 GiB
Duration : 17mn 56s
Overall bit rate mode : Variable
Overall bit rate : 8 608 Kbps

Video
ID : 224 (0xE0)
Format : MPEG Video
Format version : Version 2
Format profile : Main@High
Format settings, BVOP : Yes
Format settings, Matrix : Custom
Format settings, GOP : M=3, N=15
Duration : 17mn 56s
Bit rate mode : Variable
Bit rate : 7 988 Kbps
Maximum bit rate : 10 000 Kbps
Width : 1 280 pixels
Height : 720 pixels
Display aspect ratio : 4:3
Frame rate : 25.000 fps
Color space : YUV
Chroma subsampling : 4:2:0
Bit depth : 8 bits
Scan type : Progressive
Compression mode : Lossy
Bits/(Pixel*Frame) : 0.347
Time code of first frame : 00:00:00:00
Time code source : Group of pictures header
Stream size : 1.00 GiB (93%)

Audio
ID : 189 (0xBD)-128 (0x80)
Format : AC-3
Format/Info : Audio Coding 3
Mode extension : CM (complete main)
Format settings, Endianness : Big
Muxing mode : DVD-Video
Duration : 17mn 56s
Bit rate mode : Constant
Bit rate : 448 Kbps
Channel count : 6 channels
Channel positions : Front: L C R, Side: L R, LFE
Sampling rate : 48.0 KHz
Bit depth : 16 bits
Compression mode : Lossy
Stream size : 57.5 MiB (5%)







Прикрепления: 2800934.jpg(600Kb) · 3444626.jpg(276Kb) · 6769157.jpg(553Kb) · 9732847.jpg(543Kb) · 2920659.jpg(629Kb)
 
murrshakoДата: Вторник, 23.02.2016, 14:28 | Сообщение # 8
Группа: Администраторы
Сообщений: 2044
Репутация: 55
Статус: Offline




Прикрепления: 2059544.jpg(330Kb) · 6629041.jpg(568Kb) · 0870816.jpg(575Kb) · 4067463.jpg(548Kb) · 0187022.jpg(440Kb)
 
murrshakoДата: Вторник, 23.02.2016, 14:32 | Сообщение # 9
Группа: Администраторы
Сообщений: 2044
Репутация: 55
Статус: Offline
Прикрепления: 9106000.jpg(622Kb) · 1202612.jpg(422Kb) · 1370675.jpg(604Kb) · 5830068.jpg(550Kb) · 5268430.jpg(629Kb)
 
ЦЫГАНЕ=ROMA=Cingaris=GYPSIES=CIGANOS=吉普賽人=ZINGARI=जिप्सФорум » ЦЫГАНСКИЙ РАЗДЕЛ » ЦЫГАНСКИЕ-ИНДИЙСКИЕ-ЗАРУБЕЖНЫЕ-ОТЕЧЕСТВ- ФИЛЬМЫ-ОНЛАЙН » ИНДИЙСКИЕ ФИЛЬМЫ ВСЕ ЖАНРЫ В 3D ФОРМАТЕ (ВЕРТИКАЛЬНЫЕ И ГОРИЗОНТАЛЬНЫЕ Анаморфные стереопары)
Страница 2 из 2«12
Поиск:

тест скорости интернета
| Copyright MyCorp © 2017 | |