благодарю!!ромалэ
ЯндексЯндекс. ДеньгиХочу такую же кнопку

http://murrshako-rom.ucoz.ru$724.67$724.67Сколько стоит ваш?

Я Виноват 1993год - ЦЫГАНЕ=ROMA=Cingaris=GYPSIES=CIGANOS=吉普賽人=ZINGARI=जिप्सФорум
RADIO

GIPSY VOICE
radio

ЦЫГАНСКИЕ СТРУНЫ
радио

Вторник, 19.12.2017, 01:26
Главная
Регистрация
Вход
Цыганский портал!!!приветствую ромалэ!!зачан!!
Приветствую Вас Гость | RSS
[ Новые сообщения · Участники · Правила форума · Поиск · RSS ]
Страница 1 из 11
ЦЫГАНЕ=ROMA=Cingaris=GYPSIES=CIGANOS=吉普賽人=ZINGARI=जिप्सФорум » ЦЫГАНСКИЙ РАЗДЕЛ » ФИЛЬМЫ НА ЦЫГАНСКУЮ ТЕМАТИКУ FULL HD 720P 60 FPS » Я Виноват 1993год (про-во Россия Жанр: Криминальная мелодрама, боевик)
Я Виноват 1993год
murrshakoДата: Воскресенье, 20.04.2014, 15:45 | Сообщение # 1
Группа: Администраторы
Сообщений: 2053
Репутация: 55
Статус: Offline


Я виноват
Год выпуска: 1993
Жанр: Криминальная мелодрама, боевик
Продолжительность: 01:26:13
Режиссер: Дуфуня Вишневский, Юсуп Разыков
В ролях: Aлeкcaндp Aбдулoв, Apиcтapх Ливaнoв, Дуфуня Вишнeвcкий, Вaлeнтинa Вишнeвcкaя, Eкaтepинa Meдвeдeвa, Шaндop Пeтpoв, Ляля Mихaй, Maдлeнa Вишнeвcкaя, Aннa Topкиaни, Aлeкcaндp Aлeкceeв, Mихaил Maccaльcкий, Пaвeл Aндpeйчeнкo, Mихaил Шишкoв, Aлeкcaндp Лoпaтo
Описание: Цыгaнcкий бapoн жepтвyeт вceм paди cпaceния cвoиx дeтeй, зaмeшaнныx в нapкoбизнecе. B peзyльтaтe ccopы cынa бapoнa c дpyгим клaнoм, гибнeт мoлoдoй цыгaн. Этo пpивoдит к жecтoкoй цыгaнcкoй мecти, пoдoгpeвaeмoй кoppyмпиpoвaнными чинoвникaми и КГБ...

СМОТРЕТЬ ФИЛЬМ В КАЧЕСТВЕ FULL HD 720P

Доступно только для пользователей
Качество: DVDRip
Формат: AVI
Видео кодек: XviD
Аудио кодек: AC3
Видео: 720x544 (1.32:1), 25 fps, XviD Codec ~679 kbps avg, 0.069 bit/pixel
Аудио: 48000 Hz, ac3 (0x2000), 448 kb/s (6 ch) CBR

Доступно только для пользователей





Прикрепления: 1642511.jpg(59Kb) · 7069007.png(691Kb) · 8135668.png(673Kb) · 7064869.png(602Kb) · 2814668.png(649Kb)


Сообщение отредактировал murrshako - Воскресенье, 20.04.2014, 16:01
 
murrshakoДата: Воскресенье, 20.04.2014, 16:00 | Сообщение # 2
Группа: Администраторы
Сообщений: 2053
Репутация: 55
Статус: Offline




Доступно только для пользователей
Прикрепления: 4182252.jpg(29Kb) · 0647152.jpg(23Kb) · 4609103.jpg(40Kb) · 3986810.jpg(28Kb) · 8039185.jpg(205Kb)
 
murrshakoДата: Четверг, 12.06.2014, 13:28 | Сообщение # 3
Группа: Администраторы
Сообщений: 2053
Репутация: 55
Статус: Offline



РОМАЛЭ (GYPSY)
МОЖНО СКАЧАТЬ ФИЛЬМ БЫСТРЕЕ ЧЕМ С ТОРРЕНТ ССЫЛКИ..С ОБЛАКО МАИЛ РУ +КАЧЕСТВО FULL HD 1280-720Р =60 FPS=
ПЕРЕХОД УЗНАТЬ ЧТО ТАКОЕ ФИЛЬМЫ В КАЧЕСТВЕ 60 PFS



Format : AVI
Format/Info : Audio Video Interleave
Format profile : OpenDML
File size : 1.49 GiB
Duration : 1h 26mn
Overall bit rate : 2 481 Kbps
Writing application : Lavf54.63.104

Video
ID : 0
Format : AVC
Format/Info : Advanced Video Codec
Format profile : Main@L3.2
Format settings, CABAC : Yes
Format settings, ReFrames : 1 frame
Codec ID : H264
Duration : 1h 26mn
Bit rate : 2 206 Kbps
Width : 1 280 pixels
Height : 720 pixels
Display aspect ratio : 16:9
Frame rate mode : Variable
Frame rate : 60.000 fps
Color space : YUV
Chroma subsampling : 4:2:0
Bit depth : 8 bits
Scan type : Progressive
Bits/(Pixel*Frame) : 0.040
Stream size : 1.29 GiB (86%)
Writing library : x264 core 129
Encoding setting

Audio
ID : 1
Format : AC-3
Format/Info : Audio Coding 3
Codec ID : 00001000-0000-0020-8000-00AA00389B71
Duration : 1h 26mn
Bit rate : 320 Kbps
Channel(s) : 6 channels
Channel positions : Front: L C R, Back: L R, LFE
Sampling rate : 48.0 KHz
Bit depth : 16 bits
Compression mode : Lossy
Stream size : 197 MiB (13%)
Interleave, duration : 32 ms (1.92 video frames)

ПЕРЕХОД СКАЧАТЬ ФИЛЬМ Я ВИНОВАТ В КАЧЕСТВЕ FULL HD 1280-720 60 FPS

Доступно только для пользователей





Сообщение отредактировал murrshako - Воскресенье, 14.09.2014, 19:58
 
ЦЫГАНЕ=ROMA=Cingaris=GYPSIES=CIGANOS=吉普賽人=ZINGARI=जिप्सФорум » ЦЫГАНСКИЙ РАЗДЕЛ » ФИЛЬМЫ НА ЦЫГАНСКУЮ ТЕМАТИКУ FULL HD 720P 60 FPS » Я Виноват 1993год (про-во Россия Жанр: Криминальная мелодрама, боевик)
Страница 1 из 11
Поиск:

тест скорости интернета
| Copyright MyCorp © 2017 | |