благодарю!!ромалэ
ЯндексЯндекс. ДеньгиХочу такую же кнопку

http://murrshako-rom.ucoz.ru$724.67$724.67Сколько стоит ваш?

Я Виноват-2(2000год) - ЦЫГАНЕ=ROMA=Cingaris=GYPSIES=CIGANOS=吉普賽人=ZINGARI=जिप्सФорум
RADIO

GIPSY VOICE
radio

ЦЫГАНСКИЕ СТРУНЫ
радио

Четверг, 17.08.2017, 08:51
Главная
Регистрация
Вход
Цыганский портал!!!приветствую ромалэ!!зачан!!
Приветствую Вас Гость | RSS
[ Новые сообщения · Участники · Правила форума · Поиск · RSS ]
Страница 1 из 11
ЦЫГАНЕ=ROMA=Cingaris=GYPSIES=CIGANOS=吉普賽人=ZINGARI=जिप्सФорум » ЦЫГАНСКИЙ РАЗДЕЛ » ФИЛЬМЫ НА ЦЫГАНСКУЮ ТЕМАТИКУ FULL HD 720P 60 FPS » Я Виноват-2(2000год) (про-во Россия Жанр: Криминальная мелодрама, боевик)
Я Виноват-2(2000год)
murrshakoДата: Воскресенье, 20.04.2014, 16:13 | Сообщение # 1
Группа: Администраторы
Сообщений: 2053
Репутация: 55
Статус: Offline


Я виноват - 2

Год выпуска: 2000
Жанр: Криминальная мелодрама, боевик
Продолжительность: 01:36:50
Режиссер: Дуфуня Вишневский
В ролях: Дуфуня Вишневский, Валентина Вишневская, Аристарх Ливанов, Мадлена Вишневская, Виктор Вержбицкий, Борис Жуков, Тимофей Федоров, Лайош Ланс
Описание: В помещении на Манежной площади, принадлежащему крупному цыганскому бизнесмену Алану Чокеши, должна открыться цыганская школа искусств. На это здание претендуют враги Алана. Они готовы на все и, для начала, похищают дочь Алана, юную красавицу Россу...

СМОТРЕТЬ ФИЛЬМ В КАЧЕСТВЕ FULL HD 720P

Доступно только для пользователей

СМОТРЕТЬ ФИЛЬМ В ЛУЧШЕМ КАЧЕСТВЕ FULL HD 720P

Доступно только для пользователей
Качество: DVDRip
Формат: AVI
Видео кодек: XviD
Аудио кодек: AC3
Видео: 720x544 (1.32:1), 25 fps, XviD Codec ~555 kbps avg, 0.057 bit/pixel
Аудио: 48000 Hz, ac3 (0x2000), 448 kb/s (6 ch) CBR

torrent скачан: 3006 раз
Размер: 1.36 GB

Доступно только для пользователей






Прикрепления: 1134976.png(152Kb) · 0922651.png(291Kb) · 8250210.png(254Kb) · 3881053.png(380Kb)


Сообщение отредактировал murrshako - Пятница, 25.04.2014, 13:52
 
murrshakoДата: Четверг, 12.06.2014, 13:46 | Сообщение # 2
Группа: Администраторы
Сообщений: 2053
Репутация: 55
Статус: Offline


]РОМАЛЭ (GYPSY)
МОЖНО СКАЧАТЬ ФИЛЬМ БЫСТРЕЕ ЧЕМ С ТОРРЕНТ ССЫЛКИ..С ОБЛАКО МАИЛ РУ +КАЧЕСТВО FULL HD 1280-720Р =60 FPS=
ПЕРЕХОД УЗНАТЬ ЧТО ТАКОЕ ФИЛЬМЫ В КАЧЕСТВЕ 60 PFS


Format : AVI
Format/Info : Audio Video Interleave
Format profile : OpenDML
File size : 1.72 GiB
Duration : 1h 36mn
Overall bit rate : 2 549 Kbps
Writing application : Lavf54.63.104

Video
ID : 0
Format : AVC
Format/Info : Advanced Video Codec
Format profile : Main@L3.2
Format settings, CABAC : Yes
Format settings, ReFrames : 1 frame
Codec ID : H264
Duration : 1h 36mn
Bit rate : 2 206 Kbps
Width : 1 280 pixels
Height : 720 pixels
Display aspect ratio : 16:9
Frame rate mode : Variable
Frame rate : 60.000 fps
Color space : YUV
Chroma subsampling : 4:2:0
Bit depth : 8 bits
Scan type : Progressive
Bits/(Pixel*Frame) : 0.040
Stream size : 1.50 GiB (87%)
Writing library : x264 core 129
Encoding settings

Audio
ID : 1
Format : AC-3
Format/Info : Audio Coding 3
Codec ID : 00001000-0000-0020-8000-00AA00389B71
Duration : 1h 36mn
Bit rate : 320 Kbps
Channel(s) : 6 channels
Channel positions : Front: L C R, Back: L R, LFE
Sampling rate : 48.0 KHz
Bit depth : 16 bits
Compression mode : Lossy
Stream size : 222 MiB (13%)
Interleave, duration : 32 ms (1.92 video frames)

ПЕРЕХОД СКАЧАТЬ ФИЛЬМ Я ВИНОВАТ -2 ЧАСТЬ В КАЧЕСТВЕ FULL HD 1280-720 60 FPS

Доступно только для пользователей



Сообщение отредактировал murrshako - Четверг, 12.06.2014, 13:48
 
ЦЫГАНЕ=ROMA=Cingaris=GYPSIES=CIGANOS=吉普賽人=ZINGARI=जिप्सФорум » ЦЫГАНСКИЙ РАЗДЕЛ » ФИЛЬМЫ НА ЦЫГАНСКУЮ ТЕМАТИКУ FULL HD 720P 60 FPS » Я Виноват-2(2000год) (про-во Россия Жанр: Криминальная мелодрама, боевик)
Страница 1 из 11
Поиск:

тест скорости интернета
| Copyright MyCorp © 2017 | |