благодарю!!ромалэ
ЯндексЯндекс. ДеньгиХочу такую же кнопку

http://murrshako-rom.ucoz.ru$724.67$724.67Сколько стоит ваш?

Цыганка Аза 1987год - ЦЫГАНЕ=ROMA=Cingaris=GYPSIES=CIGANOS=吉普賽人=ZINGARI=जिप्सФорум
RADIO

GIPSY VOICE
radio

ЦЫГАНСКИЕ СТРУНЫ
радио

Понедельник, 21.08.2017, 03:37
Главная
Регистрация
Вход
Цыганский портал!!!приветствую ромалэ!!зачан!!
Приветствую Вас Гость | RSS
[ Новые сообщения · Участники · Правила форума · Поиск · RSS ]
Страница 1 из 11
ЦЫГАНЕ=ROMA=Cingaris=GYPSIES=CIGANOS=吉普賽人=ZINGARI=जिप्सФорум » ЦЫГАНСКИЙ РАЗДЕЛ » ФИЛЬМЫ НА ЦЫГАНСКУЮ ТЕМАТИКУ FULL HD 720P 60 FPS » Цыганка Аза 1987год (про-во СССР Жанр: Драма)
Цыганка Аза 1987год
murrshakoДата: Вторник, 22.04.2014, 14:16 | Сообщение # 1
Группа: Администраторы
Сообщений: 2053
Репутация: 55
Статус: Offline

Название: Цыганка Аза

Длительность: 96 мин.


Год: 1987

Производство: СССР
Режиссёр: Григорий Кохан

Актёр: Александр Бондаренко, Игорь Крикунов, Геннадий Гарбук, Екатерина Жемчужная, Берта Хапава, Сергей Эрденко, Елена Пономаренко, Викторас Шинкарюкас, Серафима Золотарева, Белаш Вишневский, Ольга Жемчужная, Георгий Цветков, Дэна Туманская, Дмитрий Бузылев-Крэцо, Станислав Молганов

Продюсер: Григорий Чужий

Сценарий: Григорий Кохан, Михаил Старицкий, Ярослав Стельмах

Оператор: Аркадий Першин

Композитор: Владимир Гронский

Художник: Виктор Мигулько

Рейтинг 0 , КиноПоиск: 6 , Рейтинг сайта: 6.7

Просмотров: 9962

Описание:

Цыган Василь полюбил красавицу Галю. Забыл кочевую жизнь, родную мать и цыганку Азу - и решил ради Гали остаться в деревне. Галя бросает кузнеца Пилипа и, не послушав отца, выходит за Василя замуж. Но пройдет время - Василь затоскует по табору и станет просить прощения у матери и Азы.

СМОТРЕТЬ ФИЛЬМ В КАЧЕСТВЕ FULL HD 720P 16:9 ВО ВЕСЬ ЭКРАН

Доступно только для пользователей


..........


Сообщение отредактировал murrshako - Суббота, 20.09.2014, 11:56
 
murrshakoДата: Вторник, 22.04.2014, 14:24 | Сообщение # 2
Группа: Администраторы
Сообщений: 2053
Репутация: 55
Статус: Offline



Цыганка Аза
picГод выпуска: 1987
Жанр: Драма
Продолжительность: 01:30:38
Режиссер: Григорий Кохан
В ролях: Ляля Жемчужная, Игорь Крикунов, Елена Пономаренко, Александр Бондаренко, Берта Хапава, Викторас Шинкарюкас, Геннадий Гарбук, Сергей Эрденко, Георгий Цветков, Серафима Золотарева, Дана Туманская, Белаш Вишневский, Екатерина Жемчужная, Дмитрий Бузылёв-Крэцо, Станислав Молганов, Елена Чекан
Описание: Цыган Василь полюбил красавицу Галю. Забыл кочевую жизнь, родную мать и цыганку Азу - и решил ради Гали остаться в деревне. Галя бросает кузнеца Пилипа и, не послушав отца, выходит за Василя замуж. Но пройдет время - Василь затоскует по табору - и будет просить прощения у матери и Азы...
Доп. информация: Сценаристы: Григорий Кохан, Ярослав Стельмах
Оператор: Аркадий Першин
Композитор: Владимир Гронский
Художник: Виктор Мигулько
Производство: Киностудия им. А. Довженко
Качество: DVDRip
Формат: AVI
Видео кодек: DivX
Аудио кодек: AC3
Видео: 704x512 (1.38:1), 25 fps, DivX Codec 5.x or 6.x ~1894 kbps avg, 0.21 bit/pixel
Аудио: 48 kHz, AC3 Dolby Digital, 2/0 (L,R) ch, ~256.00 kbps avg

.torrent скачан: 1659 раз
Размер: 1.37 GB

Доступно только для пользователей



Прикрепления: 4584787.jpg(47Kb)
 
murrshakoДата: Вторник, 22.04.2014, 14:40 | Сообщение # 3
Группа: Администраторы
Сообщений: 2053
Репутация: 55
Статус: Offline

Цыганка Аза
Год выпуска: 1987
Страна: СССР
Жанр: Драма, Киностудия им. А. Довженко
Продолжительность: 01:30:38
Режиссер: Григорий Кохан


В ролях: Ляля Жемчужная, Елена Пономаренко, Игорь Крикунов, Александр Бондаренко, Берта Хапава, Викторас Шинкарюкас, Геннадий Гарбук, Сергей Эрденко, Георги Цветков, Серафима Золотарева, Дана Туманская, Белаш Вишневский, Екатерина Жемчужная, Дмитрий БузылевОписание: Цыган Василь полюбил красавицу Галю. Забыл кочевую жизнь, родную мать и цыганку Азу — и решил ради Гали остаться в деревне. Галя бросает кузнеца Пилипа и, не послушав отца, выходит за Василя замуж. Но пройдет время — Василь затоскует по табору и станет просить прощения у матери и Азы.
Качество: DVD5
Формат: DVD Video
Видео кодек: MPEG2
Аудио кодек: AC3
Видео: PAL 4:3 (720x576) VBR
Аудио: Русский (Dolby AC3, 2ch, 48 kHz, ~ 256 kbps)

torrent скачан: 419 раз
Размер: 4.21 GB

Доступно только для пользователей


Прикрепления: 5420074.jpg(49Kb) · 4619450.jpg(45Kb) · 8987458.jpg(47Kb) · 6479622.jpg(36Kb) · 8518069.jpg(47Kb)


Сообщение отредактировал murrshako - Вторник, 22.04.2014, 14:43
 
murrshakoДата: Пятница, 19.09.2014, 15:08 | Сообщение # 4
Группа: Администраторы
Сообщений: 2053
Репутация: 55
Статус: Offline


150\60FPS\Ciganka_Aza.mp4
Format : MPEG-4
Format profile : Base Media
Codec ID : isom
File size : 1.53 GiB
Duration : 1h 30mn
Overall bit rate mode : Variable
Overall bit rate : 2 410 Kbps
Writing application : Lavf54.63.104

Video
ID : 1
Format : AVC
Format/Info : Advanced Video Codec
Format profile : Main@L3.2
Format settings, CABAC : Yes
Format settings, ReFrames : 1 frame
Codec ID : avc1
Codec ID/Info : Advanced Video Coding
Duration : 1h 30mn
Bit rate : 2 206 Kbps
Width : 1 280 pixels
Height : 720 pixels
Display aspect ratio : 16:9
Frame rate mode : Constant
Frame rate : 60.000 fps
Color space : YUV
Chroma subsampling : 4:2:0
Bit depth : 8 bits
Scan type : Progressive
Bits/(Pixel*Frame) : 0.040
Stream size : 1.39 GiB (91%)
Writing library : x264 core 129
Encoding settings

Audio
ID : 2
Format : AAC
Format/Info : Advanced Audio Codec
Format profile : LC
Codec ID : 40
Duration : 1h 30mn
Duration_FirstFrame : 64ms
Bit rate mode : Variable
Bit rate : 199 Kbps
Maximum bit rate : 384 Kbps
Channel(s) : 6 channels
Channel positions : Front: L C R, Side: L R, LFE
Sampling rate : 48.0 KHz
Compression mode : Lossy
Stream size : 129 MiB (8%)
ПЕРЕХОД СКАЧАТЬ ФИЛЬМ В КАЧЕСТВЕ FULL HD 1280-720 ЗВУК 5.1 60 FPS
Доступно только для пользователей

СКРИНШОТЫ





Прикрепления: 1462560.jpg(492Kb) · 7598648.jpg(514Kb) · 5759113.jpg(421Kb) · 4236758.jpg(492Kb) · 7480386.jpg(430Kb)


Сообщение отредактировал murrshako - Суббота, 20.09.2014, 12:00
 
ЦЫГАНЕ=ROMA=Cingaris=GYPSIES=CIGANOS=吉普賽人=ZINGARI=जिप्सФорум » ЦЫГАНСКИЙ РАЗДЕЛ » ФИЛЬМЫ НА ЦЫГАНСКУЮ ТЕМАТИКУ FULL HD 720P 60 FPS » Цыганка Аза 1987год (про-во СССР Жанр: Драма)
Страница 1 из 11
Поиск:

тест скорости интернета
| Copyright MyCorp © 2017 | |