благодарю!!ромалэ
ЯндексЯндекс. ДеньгиХочу такую же кнопку

http://murrshako-rom.ucoz.ru$724.67$724.67Сколько стоит ваш?

Табор уходит в разведку / [Эфир от 05.02.2014] - ЦЫГАНЕ=ROMA=Cingaris=GYPSIES=CIGANOS=吉普賽人=ZINGARI=जिप्सФорум
RADIO

GIPSY VOICE
radio

ЦЫГАНСКИЕ СТРУНЫ
радио

Четверг, 29.06.2017, 15:31
Главная
Регистрация
Вход
Цыганский портал!!!приветствую ромалэ!!зачан!!
Приветствую Вас Гость | RSS
[ Новые сообщения · Участники · Правила форума · Поиск · RSS ]
Страница 1 из 11
ЦЫГАНЕ=ROMA=Cingaris=GYPSIES=CIGANOS=吉普賽人=ZINGARI=जिप्सФорум » ЦЫГАНСКИЙ РАЗДЕЛ » ФИЛЬМЫ НА ЦЫГАНСКУЮ ТЕМАТИКУ FULL HD 720P 60 FPS » Табор уходит в разведку / [Эфир от 05.02.2014] (Страна: Россия Режиссер: Рен-ТВ Жанр: документальный)
Табор уходит в разведку / [Эфир от 05.02.2014]
murrshakoДата: Среда, 23.04.2014, 09:22 | Сообщение # 1
Группа: Администраторы
Сообщений: 2046
Репутация: 55
Статус: Offline

Вам и не снилось. Табор уходит в разведку [Эфир от 05.02.2014]

Перевод: Не требуется, cубтитры: отсутствуют
Формат: SATRip, AVI, XviD, MP3
Страна: Россия
Режиссер: Рен-ТВ
Жанр: документальный
Продолжительность: 02:10:21
Год выпуска: 2014

Описание: Цыгане... С одной стороны, склонны к воровству, мошенничеству, с другой - они талантливые артисты и, говорят, прирожденные разведчики. Многие из них обладают даром предвидения и навыками гипноза. Среди них много знаменитостей, цыганскую кровь обнаружили даже у Билла Клинтона... Правда ли, что цыгане всего мира создали тайную организацию? Что у них есть своя разведка? Зачем им это нужно?






Видео: 720x432 (1.67:1), 25 fps, XviD build 50 ~1799 kbps avg, 0.23 bit/pixel
Аудио: 48 kHz, MPEG Layer 3, 2 ch, ~128.00 kbps avg

Информация о торренте:
Размер содержимого: 1.8 GB
Скачан: 157 раз
Статус: Проверен

Доступно только для пользователей
Прикрепления: 0688744.jpg(85Kb)


Сообщение отредактировал murrshako - Вторник, 19.05.2015, 13:49
 
murrshakoДата: Пятница, 25.07.2014, 13:09 | Сообщение # 2
Группа: Администраторы
Сообщений: 2046
Репутация: 55
Статус: Offline
Overall bit rate : 2 552 Kbps
Writing application : Lavf54.63.104

Video
ID : 0
Format : AVC
Format/Info : Advanced Video Codec
Format profile : Main@L3.2
Format settings, CABAC : Yes
Format settings, ReFrames : 1 frame
Codec ID : H264
Duration : 47mn 47s
Bit rate : 2 207 Kbps
Width : 1 280 pixels
Height : 720 pixels
Display aspect ratio : 16:9
Frame rate mode : Variable
Frame rate : 60.000 fps
Color space : YUV
Chroma subsampling : 4:2:0
Bit depth : 8 bits
Scan type : Progressive
Bits/(Pixel*Frame)

Audio
ID : 1
Format : AC-3
Format/Info : Audio Coding 3
Codec ID : 00001000-0000-0020-8000-00AA00389B71
Duration : 47mn 47s
Bit rate : 320 Kbps
Channel(s) : 6 channels
Channel positions : Front: L C R, Back: L R, LFE
Sampling rate : 48.0 KHz
Bit depth : 16 bits
Compression mode : Lossy
Stream size : 109 MiB (13%)
Interleave, duration : 32 ms (1.92 video frames)

ТЕПЕРЬ МОЖНО СКАЧАТЬ ПО ПРЯМОЙ ССЫЛКЕ С ОБЛАКО МАИЛ РУ В КАЧЕСТВЕ 60 FPS 1280-720P 5.1 ЗВУКОМ

Доступно только для пользователей




Сообщение отредактировал murrshako - Суббота, 26.07.2014, 12:41
 
murrshakoДата: Суббота, 26.07.2014, 12:45 | Сообщение # 3
Группа: Администраторы
Сообщений: 2046
Репутация: 55
Статус: Offline



СМОТРЕТЬ В КАЧЕСТВЕ HD 1280-720P (1-Я ЧАСТЬ )



СМОТРЕТЬ 2-Ю ЧАСТЬ ФИЛЬМА

Доступно только для пользователей

Прикрепления: 4176147.jpg(31Kb)
 
murrshakoДата: Понедельник, 04.08.2014, 19:45 | Сообщение # 4
Группа: Администраторы
Сообщений: 2046
Репутация: 55
Статус: Offline
Format : MPEG-4
Format profile : Base Media
Codec ID : isom
File size : 1.16 GiB
Duration : 1h 10mn
Overall bit rate mode : Variable
Overall bit rate : 2 355 Kbps
Encoded date : UTC 2014-07-23 13:34:55
Tagged date : UTC 2014-07-23 13:34:55

Video
ID : 1
Format : AVC
Format/Info : Advanced Video Codec
Format profile : Main@L3.2
Format settings, CABAC : Yes
Format settings, ReFrames : 1 frame
Codec ID : avc1
Codec ID/Info : Advanced Video Coding
Duration : 1h 10mn
Bit rate : 2 221 Kbps
Width : 1 280 pixels
Height : 720 pixels
Display aspect ratio : 16:9
Frame rate mode : Constant
Frame rate : 60.000 fps
Color space : YUV
Chroma subsampling : 4:2:0
Bit depth : 8 bits
Scan type : Progressive
Bits/(Pixel*Frame) : 0.040
Stream size : 1.09 GiB (94%)
Encoded date : UTC 2014-02-06 08:21:33
Tagged date : UTC 2014-07-23 13:39:13

Audio
ID : 2
Format : AAC
Format/Info : Advanced Audio Codec
Format profile : LC
Codec ID : 40
Duration : 1h 10mn
Bit rate mode : Variable
Bit rate : 132 Kbps
Nominal bit rate : 144 Kbps
Maximum bit rate : 384 Kbps
Channel(s) : 6 channels
Channel positions : Front: L C R, Side: L R, LFE
Sampling rate : 48.0 KHz
Compression mode : Lossy
Stream size : 65.4 MiB (6%)
Encoded date : UTC 2014-02-06 08:21:33
Tagged date : UTC 2014-07-23 13:39:13

YouTube(00h00m00s-01h10m13s).mp4
Format : MPEG-4
Format profile : Base Media
Codec ID : isom
File size : 1.16 GiB
Duration : 1h 10mn
Overall bit rate mode : Variable
Overall bit rate : 2 362 Kbps
Encoded date : UTC 2014-07-23 13:25:05
Tagged date : UTC 2014-07-23 13:25:05

Video
ID : 1
Format : AVC
Format/Info : Advanced Video Codec
Format profile : Main@L3.2
Format settings, CABAC : Yes
Format settings, ReFrames : 1 frame
Codec ID : avc1
Codec ID/Info : Advanced Video Coding
Duration : 1h 10mn
Bit rate : 2 206 Kbps
Width : 1 280 pixels
Height : 720 pixels
Display aspect ratio : 16:9
Frame rate mode : Constant
Frame rate : 60.000 fps
Color space : YUV
Chroma subsampling : 4:2:0
Bit depth : 8 bits
Scan type : Progressive
Bits/(Pixel*Frame) : 0.040
Stream size : 1.08 GiB (93%)
Writing library : x264 core 129
Encoding settings : cabac=1 / ref=1 / deblock=1:0:0 / analyse=0x1:0x131 / me=dia / subme=2 / psy=1 / psy_rd=1.00:0.00 / mixed_ref=0 / me_range=16 / chroma_me=1 / trellis=0 / 8x8dct=0 / cqm=0 / deadzone=21,11 / fast_pskip=1 / chroma_qp_offset=0 / threads=2 / lookahead_threads=1 / sliced_threads=0 / nr=0 / decimate=1 / interlaced=0 / bluray_compat=0 / constrained_intra=0 / bframes=0 / weightp=2 / keyint=250 / keyint_min=25 / scenecut=40 / intra_refresh=0 / rc_lookahead=40 / rc=abr / mbtree=1 / bitrate=2206 / ratetol=1.0 / qcomp=0.60 / qpmin=10 / qpmax=51 / qpstep=4 / ip_ratio=1.41 / aq=1:1.00
Encoded date : UTC 2014-02-06 08:21:33
Tagged date : UTC 2014-07-23 13:30:17

Audio
ID : 2
Format : AAC
Format/Info : Advanced Audio Codec
Format profile : LC
Codec ID : 40
Duration : 1h 10mn
Duration_FirstFrame : 64ms
Bit rate mode : Variable
Bit rate : 154 Kbps
Nominal bit rate : 144 Kbps
Maximum bit rate : 384 Kbps
Channel(s) : 6 channels
Channel positions : Front: L C R, Side: L R, LFE
Sampling rate : 48.0 KHz
Compression mode : Lossy
Stream size : 77.3 MiB (7%)
Encoded date : UTC 2014-02-06 08:21:33
Tagged date : UTC 2014-07-23 13:30:17

скриншоты


ПЕРЕХОД СКАЧАТЬ В КАЧЕСТВЕ HF 1280-720P 60 FPS ЗВУК 5.1

Доступно только для пользователей





Сообщение отредактировал murrshako - Воскресенье, 14.09.2014, 19:47
 
ЦЫГАНЕ=ROMA=Cingaris=GYPSIES=CIGANOS=吉普賽人=ZINGARI=जिप्सФорум » ЦЫГАНСКИЙ РАЗДЕЛ » ФИЛЬМЫ НА ЦЫГАНСКУЮ ТЕМАТИКУ FULL HD 720P 60 FPS » Табор уходит в разведку / [Эфир от 05.02.2014] (Страна: Россия Режиссер: Рен-ТВ Жанр: документальный)
Страница 1 из 11
Поиск:

тест скорости интернета
| Copyright MyCorp © 2017 | |