благодарю!!ромалэ
ЯндексЯндекс. ДеньгиХочу такую же кнопку

http://murrshako-rom.ucoz.ru$724.67$724.67Сколько стоит ваш?

Лаутары/ Lautarii 1972год - ЦЫГАНЕ=ROMA=Cingaris=GYPSIES=CIGANOS=吉普賽人=ZINGARI=जिप्सФорум
RADIO

GIPSY VOICE
radio

ЦЫГАНСКИЕ СТРУНЫ
радио

Суббота, 25.11.2017, 04:40
Главная
Регистрация
Вход
Цыганский портал!!!приветствую ромалэ!!зачан!!
Приветствую Вас Гость | RSS
[ Новые сообщения · Участники · Правила форума · Поиск · RSS ]
Страница 1 из 11
ЦЫГАНЕ=ROMA=Cingaris=GYPSIES=CIGANOS=吉普賽人=ZINGARI=जिप्सФорум » ЦЫГАНСКИЙ РАЗДЕЛ » ФИЛЬМЫ НА ЦЫГАНСКУЮ ТЕМАТИКУ FULL HD 720P 60 FPS » Лаутары/ Lautarii 1972год (про-во СССР Жанр: Драма Режиссер: Эмиль Лотяну (Emil Lo)
Лаутары/ Lautarii 1972год
murrshakoДата: Пятница, 25.04.2014, 18:49 | Сообщение # 1
Группа: Администраторы
Сообщений: 2053
Репутация: 55
Статус: Offline


Информация о фильме
Название: Лаутары
Оригинальное название: Lautarii
Год выхода: 1972
Жанр: Драма
Режиссер: Эмиль Лотяну (Emil Loteanu)


В ролях: Сергей Лункевич - Тома Алистар, Думитру Хэбэшеску - Тома Алистар (в юности), Женя Ролько - Тома Алистар (в детстве), Галина Водяницкая - цыганка Лянка (в старости), Ольга Кымпяну - Лянка (в юности), Анжелика Ященку - Лянка (в детстве), Григоре Григориу - Раду Негостин, Светлана Тома - Рамина, Хараламбиэ Бердага - лаутар, Василе Зубку-Кодряну - Илие Вилчу, Думитру Мокану - лаутар, Илие Мэскэй - лаутар, Вилли Мусоян - лаутар Драгомир, Михай Курагэу - гайдук, Михаил Тимофти (в титрах М. Тимофте) - проводник Василий, Думитру Фусу, Константин Константинов, Валериу Купча и др.

О фильме:
Красочное романтическое повествование о бродячих народных музыкантах Молдавии - лаутарах. С детства две страсти владели душой Тома Аристара - музыка и любовь к красавице - цыганке Лянке. Но, как ни боролись юные любовники за свое счастье, их разлучили. А со скрипкой разлучить не смогли. Ее он пронес по дорогам Молдавии через всю жизнь как память о Лянке. Имя его было известно ценителям музыки далеко за пределами родной цемли. И только перед смертью встретил старую цыганку, в которой узнал свою единственную любовь...

СМОТРЕТЬ ФИЛЬМ В КАЧЕСТВЕ FULL HD 720P 1-Я ЧАСТЬ ФИЛЬМА



СМОТРЕТЬ ФИЛЬМ В КАЧЕСТВЕ FULL HD 720P 2-Я ЧАСТЬ ФИЛЬМА



СМОТРЕТЬ ФИЛЬМ В КАЧЕСТВЕ 1280-720Р ВО ВЕСЬ ЭКРАН БЕЗ ЧЕРНЫХ ПОЛОС

Доступно только для пользователей




Прикрепления: 5988761.jpg(56Kb)


Сообщение отредактировал murrshako - Четверг, 01.01.2015, 13:55
 
murrshakoДата: Вторник, 30.12.2014, 16:52 | Сообщение # 2
Группа: Администраторы
Сообщений: 2053
Репутация: 55
Статус: Offline



Лаутары (Эмиль Лотяну) [1972, Музыкальная драма, DVB]






Страна: СССР (Молдова)
pic
Студия: Молдова-фильм
Жанр: Музыкальная драма
Год выпуска: 1972
Продолжительность: 02:12:13 (2 серии — 01:02:10 & 01:10:03)
Перевод: Профессиональный (дублированный Мосфильм)
Cубтитры: нет
Режиссер: Эмиль Лотяну
В ролях:
Сергей Лункевич, Думитру Хэбэшку, Женя Ролько, Ольга Кымпяну, Анджелика Ященку, Вилли Мусоян, Хараламбье Бердага, Думитру Мокану, Любомир Иорга, Илие Москей
Описание:
Красочное романтическое повествование о бродячих народных музыкантах Молдавии — лаутарах. С детства две страсти владели душой Тома Аристара — музыка и любовь к красавице — цыганке Лянке. Но, как ни боролись влюбленные за свое счастье, их разлучили. А со скрипкой разлучить не смогли. Ее он пронес по дорогам Молдавии через всю жизнь как память о Лянке.
Доп. информация;
pic
Дополнительное Описание
Раздачи на трекере:
TVRip
DVDRip
TVRip

Семпл: SAMPLE Lautaarit

Качество видео: DVB
Формат видео: DVD-Video

Видео: MPEG2 PAL ,720x576 (16:9), 25.00fps, 4600kbps Кбит/сек
Аудио: русский, Dolby AC3 48000Hz stereo 384Kbps



Статус: √ проверено
.torrent скачан: 242 раза
Размер: 4.14 GB

Доступно только для пользователей

Прикрепления: 0225081.jpg(391Kb) · 4349591.jpg(13Kb) · 7488388.jpg(1207Kb) · 6111155.jpg(887Kb)
 
murrshakoДата: Пятница, 02.01.2015, 14:15 | Сообщение # 3
Группа: Администраторы
Сообщений: 2053
Репутация: 55
Статус: Offline
Complete name : D:\Кассандра 101-150\лаутары Эмиля Лотяну звук 5.1 60 FPS.mp4
Format : MPEG-4
Format profile : Base Media
Codec ID : isom
File size : 2.27 GiB
Duration : 2h 12mn
Overall bit rate mode : Variable
Overall bit rate : 2 448 Kbps
Encoded date : UTC 2014-10-07 11:45:38
Tagged date : UTC 2014-10-07 11:45:38
Writing application : Lavf54.63.104

Video
ID : 1
Format : AVC
Format/Info : Advanced Video Codec
Format profile : Main@L3.2
Format settings, CABAC : Yes
Format settings, ReFrames : 1 frame
Codec ID : avc1
Codec ID/Info : Advanced Video Coding
Duration : 2h 12mn
Bit rate : 2 206 Kbps
Width : 1 280 pixels
Height : 720 pixels
Display aspect ratio : 16:9
Frame rate mode : Constant
Frame rate : 60.000 fps
Color space : YUV
Chroma subsampling : 4:2:0
Bit depth : 8 bits
Scan type : Progressive
Bits/(Pixel*Frame) : 0.040
Stream size : 2.05 GiB (90%)
Writing library : x264 core 129
Encoding settings

Audio
ID : 2
Format : AAC
Format/Info : Advanced Audio Codec
Format profile : LC
Codec ID : 40
Duration : 2h 12mn
Duration_FirstFrame : 64ms
Bit rate mode : Variable
Bit rate : 232 Kbps
Maximum bit rate : 384 Kbps
Channel(s) : 6 channels
Channel positions : Front: L C R, Side: L R, LFE
Sampling rate : 48.0 KHz
Compression mode : Lossy
Stream size : 220 MiB (9%)
Encoded date : UTC 2014-10-07 11:45:38
Tagged date : UTC 2014-10-07 11:45:38

СКОРО СКАЧАТЬ ФИЛЬМ В КАЧЕСТВЕ 1280-720Р СО ЗВУКОМ 5.1 И 60 FPS ВО ВЕСЬ ЭКРАН .БЕЗ ЧЕРНЫХ ПОЛОС

Доступно только для пользователей
СКРИНШОТЫ




Прикрепления: 8931389.jpg(262Kb) · 0508307.jpg(396Kb) · 8305589.jpg(415Kb) · 6344690.jpg(265Kb)


Сообщение отредактировал murrshako - Суббота, 03.01.2015, 15:52
 
ЦЫГАНЕ=ROMA=Cingaris=GYPSIES=CIGANOS=吉普賽人=ZINGARI=जिप्सФорум » ЦЫГАНСКИЙ РАЗДЕЛ » ФИЛЬМЫ НА ЦЫГАНСКУЮ ТЕМАТИКУ FULL HD 720P 60 FPS » Лаутары/ Lautarii 1972год (про-во СССР Жанр: Драма Режиссер: Эмиль Лотяну (Emil Lo)
Страница 1 из 11
Поиск:

тест скорости интернета
| Copyright MyCorp © 2017 | |