благодарю!!ромалэ
ЯндексЯндекс. ДеньгиХочу такую же кнопку

http://murrshako-rom.ucoz.ru$724.67$724.67Сколько стоит ваш?

Цыганские глаза / Gypsy Eyes 1992г. - ЦЫГАНЕ=ROMA=Cingaris=GYPSIES=CIGANOS=吉普賽人=ZINGARI=जिप्सФорум
RADIO

GIPSY VOICE
radio

ЦЫГАНСКИЕ СТРУНЫ
радио

Пятница, 21.07.2017, 23:34
Главная
Регистрация
Вход
Цыганский портал!!!приветствую ромалэ!!зачан!!
Приветствую Вас Гость | RSS
[ Новые сообщения · Участники · Правила форума · Поиск · RSS ]
Страница 1 из 11
ЦЫГАНЕ=ROMA=Cingaris=GYPSIES=CIGANOS=吉普賽人=ZINGARI=जिप्सФорум » ЦЫГАНСКИЙ РАЗДЕЛ » ФИЛЬМЫ НА ЦЫГАНСКУЮ ТЕМАТИКУ FULL HD 720P 60 FPS » Цыганские глаза / Gypsy Eyes 1992г. (боевик,мелодрама, США-Словения(русский дубляж))
Цыганские глаза / Gypsy Eyes 1992г.
murrshakoДата: Суббота, 26.04.2014, 14:27 | Сообщение # 1
Группа: Администраторы
Сообщений: 2051
Репутация: 55
Статус: Offline


Фильм Цыганские глаза скачать торрент бесплатно. Цыганские глаза / Gypsy Eyes (Винчи Вог Анзловар) [1992, боевик, драма, мелодрама, DVDRip]MVO

Перевод: Профессиональный (многоголосый, закадровый), cубтитры: отсутствуют
Формат: DVDRip, AVI, XviD, MP3
Страна: США, Словения
Режиссер: Винчи Вог Анзловар
Жанр: боевик, драма, мелодрама
Продолжительность: 01:23:29
Год выпуска: 1992
В ролях: Джим Метцлер, Клэр Форлани, Джордж ДиЧенцо, Борис Кавацца, Эшли Грэхэм
Описание: Румыния. Цыганка, дочь барона и красавица, решила обчистить похотливого работника американского посольства, подсыпав ему в шампанское снотворного. Когда она вышла в ванную, ожидая эффекта, в окно залез убийца и застрелил клиента. Увидев, что в номере был кто-то еще, убийца погнался за ней, но упустил. Расследовать дело взялся помимо полиции агент ЦРУ, работающий в посольстве. Расследование приводит его в само посольство — его начальство занималось нелегальной торговлей оружием. Теперь они оба становятся объектами преследования со стороны его бывших сослуживцев.

СМОТРЕТЬ ФИЛЬМ В КАЧЕСТВЕ FULL HD 720P ФОРМАТ 16:9 ВО ВЕСЬ ЭКРАН
Доступно только для пользователей

СМОТРЕТЬ ФИЛЬМ В КАЧЕСТВЕ 480Р ФОРМАТ 4:3 не во весь экран (черные полосы по бокам)



Доп. информация:
Рейтинг:
Kинопоиск - 6.36 (11)
IMDB - 5.40 (128)
Источник:
DVDRip с оригинальной дорожкой найден в сети
русская звуковая дорожка оцифрована с видеокассеты (запись с телеканала ТВ6)
Сэмпл:
http://multi-up.com/597935
Качество видео: DVDRip
Формат видео: AVI
Видео: 720x576 (1.25:1), 25 fps, XviD MPEG-4 ~1160 kbps avg, 0.11 bit/pixel
Аудио 1: rus: 44.1 kHz, MPEG Layer 3, 2 ch, ~256.00 kbps avg
Аудио 2: eng: 44.1 kHz, MPEG Layer 3, 2 ch, ~192.00 kbps avg

.torrent скачан: 796 раз
Размер: 970 MB

Доступно только для пользователей





СКОРО СМОТРЕТЬ ОНЛАЙН В FULL HD 720P
Прикрепления: 6048672.jpg(35Kb) · 4072701.jpg(32Kb) · 2724971.jpg(38Kb) · 8058832.jpg(56Kb)


Сообщение отредактировал murrshako - Суббота, 03.05.2014, 14:40
 
murrshakoДата: Суббота, 03.05.2014, 14:35 | Сообщение # 2
Группа: Администраторы
Сообщений: 2051
Репутация: 55
Статус: Offline




СМОТРЕТЬ ФИЛЬМ В КАЧЕСТВЕ FULL HD 720P ФОРМАТ 16:9 ВО ВЕСЬ ЭКРАН
Доступно только для пользователей
Прикрепления: 0977323.jpg(17Kb) · 8834178.jpg(58Kb) · 5528524.jpg(95Kb)


Сообщение отредактировал murrshako - Суббота, 03.05.2014, 14:37
 
murrshakoДата: Среда, 20.08.2014, 14:23 | Сообщение # 3
Группа: Администраторы
Сообщений: 2051
Репутация: 55
Статус: Offline
General
Complete name : C:\Users\дом\Documents\Цыганские глаза 60 FPS.avi
Format : AVI
Format/Info : Audio Video Interleave
Format profile : OpenDML
File size : 1.81 GiB
Duration : 1h 23mn
Overall bit rate : 3 096 Kbps
Writing application : Lavf54.63.104

Video
ID : 0
Format : AVC
Format/Info : Advanced Video Codec
Format profile : Main@L3.2
Format settings, CABAC : Yes
Format settings, ReFrames : 1 frame
Codec ID : H264
Duration : 1h 23mn
Bit rate : 2 769 Kbps
Width : 1 260 pixels
Height : 720 pixels
Display aspect ratio : 16:9
Frame rate mode : Variable
Frame rate : 60.000 fps
Color space : YUV
Chroma subsampling : 4:2:0
Bit depth : 8 bits
Scan type : Progressive
Bits/(Pixel*Frame) : 0.051
Stream size : 1.61 GiB (89%)
Writing library
.............................................
Audio
ID : 1
Format : AC-3
Format/Info : Audio Coding 3
Codec ID : 00001000-0000-0020-8000-00AA00389B71
Duration : 1h 23mn
Bit rate : 320 Kbps
Channel(s) : 6 channels
Channel positions : Front: L C R, Back: L R, LFE
Sampling rate : 48.0 KHz
Bit depth : 16 bits
Compression mode : Lossy
Stream size : 191 MiB (10%)
Interleave, duration : 32 ms (1.92 video frames)

СКРИНШОТЫ ФИЛЬМА



ПЕРЕХОД СКАЧАТЬ ФИЛЬМ В КАЧЕСТВЕ 1280-720р ЗВУК 5.1 60 FPS


Доступно только для пользователей




Прикрепления: 5930830.jpg(507Kb) · 1915942.jpg(531Kb) · 1304691.jpg(564Kb) · 9626334.jpg(502Kb) · 4899315.jpg(472Kb)


Сообщение отредактировал murrshako - Воскресенье, 14.09.2014, 19:33
 
ЦЫГАНЕ=ROMA=Cingaris=GYPSIES=CIGANOS=吉普賽人=ZINGARI=जिप्सФорум » ЦЫГАНСКИЙ РАЗДЕЛ » ФИЛЬМЫ НА ЦЫГАНСКУЮ ТЕМАТИКУ FULL HD 720P 60 FPS » Цыганские глаза / Gypsy Eyes 1992г. (боевик,мелодрама, США-Словения(русский дубляж))
Страница 1 из 11
Поиск:

тест скорости интернета
| Copyright MyCorp © 2017 | |