благодарю!!ромалэ
ЯндексЯндекс. ДеньгиХочу такую же кнопку

http://murrshako-rom.ucoz.ru$724.67$724.67Сколько стоит ваш?

Цыганка / La gitane 1985год - ЦЫГАНЕ=ROMA=Cingaris=GYPSIES=CIGANOS=吉普賽人=ZINGARI=जिप्सФорум
RADIO

GIPSY VOICE
radio

ЦЫГАНСКИЕ СТРУНЫ
радио

Среда, 22.11.2017, 10:35
Главная
Регистрация
Вход
Цыганский портал!!!приветствую ромалэ!!зачан!!
Приветствую Вас Гость | RSS
[ Новые сообщения · Участники · Правила форума · Поиск · RSS ]
Страница 1 из 11
ЦЫГАНЕ=ROMA=Cingaris=GYPSIES=CIGANOS=吉普賽人=ZINGARI=जिप्सФорум » ЦЫГАНСКИЙ РАЗДЕЛ » ФИЛЬМЫ НА ЦЫГАНСКУЮ ТЕМАТИКУ FULL HD 720P 60 FPS » Цыганка / La gitane 1985год (Страна: Франция Жанр: Комедия(русский дубляж))
Цыганка / La gitane 1985год
murrshakoДата: Понедельник, 28.04.2014, 15:39 | Сообщение # 1
Группа: Администраторы
Сообщений: 2053
Репутация: 55
Статус: Offline



Цыганка / La gitane
Страна: Франция
Студия: Films A2, T. Films
Жанр: Комедия
Год выпуска: 1985
Продолжительность: 01:28:07



Оригинальная аудиодорожка: французский

Режиссер: Филипп де Брока / Philippe de Broca

В ролях: Клод Брассер, Валери Каприски, Мартин Ламотт, Стефан Одран, Клементин Селарье, Мари-Анн Шазель, Жак Легра, Анри Вирложо, Лайонел Де Бар, Филипп де Брока, Ален Терзьян

Описание: Какова же в действительности жизнь богатого банкира?! В случае нашего героя, по имени Юбер она, мягко говоря, оставляет желать лучшего. Жадная жена, ненасытная любовница, капризная дочь… Эти печальные обстоятельства превращают привычный для нашего восприятия сибаритский рай в жалкое существование. Но вот однажды судьба подкидывает толстосуму неожиданный сюрприз…

Пытаясь оказать помощь лежащей на дороге девушке — Ююбер попадает в переделку. Его грабит банда цыган под предводительством прекрасной Виктории. После этого случая жизнь респектабельного финансиста становится шумным цыганским балаганом..

Доп. информация: За основу взят оригинальный чешский диск скаченный в сети. В диск добавлена дорожка с русским переводом первым потоком отсюда. Меню руссифицировано полностью. В диске больше ничего не менялось.

PgcDemux 1.2.0.5 - разделение компонентов диска на файлы, пригодные для редактирования;
BeSweet + BeLight, Adobe Audition 3.0, Vegas Pro 9.0 - Обработка аудио;
IfoEdit, MuxMan - мультиплексирование;
Photoshop, DVDSubEdit - работа над меню;
VobBlanker 2.1.3.0 - окончательная сборка;
DvdReMakePro - добавление звуковой дороги

Меню: Русское, статичное, озвученное

Сэмпл: http://multi-up.com/812993

Тип релиза: DVD5 (Custom)
Контейнер: DVD-Video

Видео: PAL 16:9 (720x576) VBR
Аудио: Russian (Dolby AC3, 3/2 (L,C,R,SL,SR)+LFE ch, 384 kbps)
Аудио 2: Francais (Dolby AC3,2/0 (L,R) ch, 224 kbps)
Формат субтитров: prerendered (Blu-ray/PGS/SUP)

torrent скачан: 319 раз
Размер: 3.82 GB

Доступно только для пользователей
Прикрепления: 1975127.png(323Kb) · 7090539.png(359Kb)
 
murrshakoДата: Понедельник, 28.04.2014, 15:48 | Сообщение # 2
Группа: Администраторы
Сообщений: 2053
Репутация: 55
Статус: Offline



Цыганка / La Gitane (Филипп де Брока / Philippe de Broca) [1986 г., комедия, DVDRip]

Цыганка / La Gitane
picГод выпуска: 1986
Страна: Франция
Жанр: комедия
Продолжительность: 87
Перевод: Любительский (двухголосый)
Русские субтитры: нет
Режиссер: Филипп де Брока /Philippe de Broca/
В ролях: Клод Брассер /Claude Brasseur/, Валери Каприски /Valerie Kaprisky/, Мартин Ламотт /Martin Lamotte/, Стефан Одран /Stephane Audran/, Клементин Селарье, Мари-Анн Шазель /Marie-Anne Chazel/, Жак Легра, Анри Вирложо, Лайонел Де Бар, Филипп де Брока, Ален Терзьян
Описание: Какова же в действительности жизнь богатого банкира?! В случае нашего героя, по имени Юбер она, мягко говоря, оставляет желать лучшего. Жадная жена, ненасытная любовница, капризная дочь… Эти печальные обстоятельства превращают привычный для нашего восприятия сибаритский рай в жалкое существование. Но вот однажды судьба подкидывает толстосуму
неожиданный сюрприз…
Пытаясь оказать помощь лежащей на дороге девушке — Юбер попадает в переделку. Его грабит банда цыган под предводительством прекрасной Виктории. После этого случая жизнь респектабельного финансиста становится шумным цыганским балаганом.
Доп. информация: DVDRip - Lenka
рип сделан с DVD-релиза группы pic
отдельное спасибо lange97
релиз группы pic

Качество: DVDRip
Формат: AVI
Видео кодек: XviD
Аудио кодек: AC3
Видео: 704x368 (1.91:1), 25 fps, XviD MPEG-4 ~1631 kbps avg, 0.25 bit/pixel
Аудио: #1: 48 kHz, AC3 Dolby Digital, 3/2 (L,C,R,l,r) + LFE ch, ~384.00 kbps avg.#2: 48 kHz, AC3 Dolby Digital, 2/0 (L,R) ch, ~192.00 kbps avg

.torrent скачан: 1015 раз
Размер: 1.36 GB

Доступно только для пользователей



Прикрепления: 5325202.png(335Kb) · 8843966.png(376Kb) · 5136637.png(462Kb) · 3134444.png(519Kb) · 3450870.png(648Kb)
 
murrshakoДата: Среда, 09.07.2014, 13:34 | Сообщение # 3
Группа: Администраторы
Сообщений: 2053
Репутация: 55
Статус: Offline
 
murrshakoДата: Среда, 09.07.2014, 13:40 | Сообщение # 4
Группа: Администраторы
Сообщений: 2053
Репутация: 55
Статус: Offline




: AVI
Format/Info : Audio Video Interleave
Format profile : OpenDML
File size : 1.80 GiB
Duration : 1h 28mn
Overall bit rate : 2 933 Kbps
Writing application : Lavf54.63.104

Video
ID : 0
Format : AVC
Format/Info : Advanced Video Codec
Format profile : Main@L3.2
Format settings, CABAC : Yes
Format settings, ReFrames : 1 frame
Codec ID : H264
Duration : 1h 28mn
Bit rate : 2 607 Kbps
Width : 1 280 pixels
Height : 720 pixels
Display aspect ratio : 16:9
Frame rate mode : Variable
Frame rate : 60.000 fps
Color space : YUV
Chroma subsampling : 4:2:0
Bit depth : 8 bits
Scan type : Progressive
Bits/(Pixel*Frame) : 0.047
Stream size : 1.60 GiB (88%)
Writing library : x264 core 129

Audio
ID : 1
Format : AC-3
Format/Info : Audio Coding 3
Codec ID : 00001000-0000-0020-8000-00AA00389B71
Duration : 1h 28mn
Bit rate : 320 Kbps
Channel(s) : 6 channels
Channel positions : Front: L C R, Back: L R, LFE
Sampling rate : 48.0 KHz
Bit depth : 16 bits
Compression mode : Lossy
Stream size : 202 MiB (11%)
Interleave, duration : 32 ms (1.92 video

СКАЧАТЬ В КАЧЕСТВЕ 1280 НА 720 60 FPS

https://cloud.mail.ru/public....001.avi
Прикрепления: 0122434.jpg(586Kb) · 5593561.jpg(468Kb) · 3679315.jpg(465Kb)
 
ЦЫГАНЕ=ROMA=Cingaris=GYPSIES=CIGANOS=吉普賽人=ZINGARI=जिप्सФорум » ЦЫГАНСКИЙ РАЗДЕЛ » ФИЛЬМЫ НА ЦЫГАНСКУЮ ТЕМАТИКУ FULL HD 720P 60 FPS » Цыганка / La gitane 1985год (Страна: Франция Жанр: Комедия(русский дубляж))
Страница 1 из 11
Поиск:

тест скорости интернета
| Copyright MyCorp © 2017 | |