благодарю!!ромалэ
ЯндексЯндекс. ДеньгиХочу такую же кнопку

http://murrshako-rom.ucoz.ru$724.67$724.67Сколько стоит ваш?

Папуша / Papusza 2013г. - ЦЫГАНЕ=ROMA=Cingaris=GYPSIES=CIGANOS=吉普賽人=ZINGARI=जिप्सФорум
RADIO

GIPSY VOICE
radio

ЦЫГАНСКИЕ СТРУНЫ
радио

Четверг, 29.06.2017, 11:59
Главная
Регистрация
Вход
Цыганский портал!!!приветствую ромалэ!!зачан!!
Приветствую Вас Гость | RSS
[ Новые сообщения · Участники · Правила форума · Поиск · RSS ]
Страница 1 из 212»
ЦЫГАНЕ=ROMA=Cingaris=GYPSIES=CIGANOS=吉普賽人=ZINGARI=जिप्सФорум » ЦЫГАНСКИЙ РАЗДЕЛ » ФИЛЬМЫ НА ЦЫГАНСКУЮ ТЕМАТИКУ FULL HD 720P 60 FPS » Папуша / Papusza 2013г. (Жанр: историческое, биография(русские титры))
Папуша / Papusza 2013г.
murrshakoДата: Понедельник, 26.05.2014, 14:24 | Сообщение # 1
Группа: Администраторы
Сообщений: 2046
Репутация: 55
Статус: Offline

Оригинальное: Папуша / Papusza

Режиссура: Иоанна Кос, Кшиштоф Краузе
В главных ролях: Ювита Мендликовская, Энтони Павлицкий, Артур Стеранко, Анджей Уолден, Збигнев Валерысь
Жанр: историческое, биография
Художественный фильм
Страна: Польша
Год выпуска: 2013
Дата выхода: 2013. 11 15
Язык: Романи, польский
Технические характеристики: черный и белый. 131 мин.
Съемочный период начался 10 февраля 2012 года. Внешний вид: v.jpg, Orneta, Leczyca, Новы Сонч.
Описание: Папуша – это псевдоним известной цыганской поэтессы Брониславы Вайс. Она прожила долгую и сложную жизнь, уехав в Румынию юной девушкой и пережив Вторую мировую войну, когда фашисты уничтожали цыган с той же ожесточенностью, что и евреев. Слава и талант помогли папуше в трудную минуту, однако не обошлось без тяжелых утрат и разочарований. Зато, пережив все трудности и лишения, ей было что рассказать потомкам. И вообще, она считала, что прожила счастливую и интересную жизнь.
СМОТРЕТЬ ФИЛЬМ 1-Ю ЧАСТЬ В КАЧЕСТВЕ FULL HD 720P 60 FPS Формат 16:9 во весь экран
Доступно только для пользователей

СМОТРЕТЬ ФИЛЬМ 2-Ю ЧАСТЬ В КАЧЕСТВЕ FULL HD 720P 60 FPS Формат 16:9 во весь экран

Доступно только для пользователей


Прикрепления: 2273928.jpg(16Kb) · 4147099.jpg(26Kb) · 8878746.png(2Kb) · 0703353.jpg(4Kb)
 
murrshakoДата: Понедельник, 26.05.2014, 14:26 | Сообщение # 2
Группа: Администраторы
Сообщений: 2046
Репутация: 55
Статус: Offline


Папуша / Papusza (Режиссура: Иоанна Кос, Кшиштоф Краузе) [2013, Польша, историческое, биография, BDRip 720p] + Sub Pol + Original Pol

Папуша / Papusza
picСтрана: Польша
Жанр: историческое, биография
Год выпуска: 2013
Продолжительность: 02:08:14
Перевод: Субтитры
Cубтитры: польские
Оригинальная аудиодорожка: польский
Режиссер: Режиссура: Иоанна Кос, Кшиштоф Краузе
В ролях: В главных ролях: Ювита Мендликовская, Энтони Павлицкий, Артур Стеранко, Анджей Уолден, Збигнев Валерысь
Описание: Описание: Папуша – это псевдоним известной цыганской поэтессы Брониславы Вайс. Она прожила долгую и сложную жизнь, уехав в Румынию юной девушкой и пережив Вторую мировую войну, когда фашисты уничтожали цыган с той же ожесточенностью, что и евреев. Слава и талант помогли папуше в трудную минуту, однако не обошлось без тяжелых утрат и разочарований. Зато, пережив все трудности и лишения, ей было что рассказать потомкам. И вообще, она считала, что прожила счастливую и интересную жизнь.
Доп. информация: Награды
2013 - Карловы Вары (МФЛ) Специальное упоминание жюри
2013 - Гдыня (в 1986 Гданьске) (Фестиваль польского кино, с 2012 Гдыня кинофестиваля) Котята золотую награду, молодежи городского совета
2013 - Гдыня (до 1986 Гданьск) (польского кинофестиваля, с 2012 Гдыня Film Festival) Фестиваль Премия и опросы Польский кино за рубежом
2013 - Збигнев Waleryś Гдыня (до 1986 года Гданьск) (Фестиваль польского кино, с 2012 Гдыня кинофестиваль) Приз за лучшую мужскую роль второго плана
2013 - Анна Нобелевской Nobielska Гдыня (до 1986 Гданьске) (Фестиваль польского кино, от 2012 Гдыня кинофестиваля) премии за макияж
2013 - янв не Края Pawluskiewicz Гдыня (до 1986 Гданьск) (польского кинофестиваля, с 2012 Гдыня Film Festival) премию за музыку
2013 - Кристофер Берд Битола (MF, Операторы "Манаки Братья") - "Бронзовый камеры 300"
2013 - Войцех Старон Битола (MF, Операторы "Манаки Братья") - "Бронзовый камеры 300"
2013 - Збигнев Waleryś Вроцлав (Фестиваль кино действуя их Тадеуш Szymków.) - "Золотой щенок" за поддержку свою актерскую мужское
2013 - Джоанна Кос-Краузе Вальядолид (International Film Festival) Приз за лучшую режиссуру
2013 - Кшиштоф Краузе Вальядолид (International Film Festival) Приз за лучшую режиссуру
2013 - Вальядолид (International Film Festival) Молодежный приз жюри
2013 - Збигнев Waleryś Вальядолид (International Film Festival) Приз за лучшую мужскую роль
2013 - Салоники (МФЛ) Награда в "Open Horizons"
2013 - Чикаго (Польский кинофестиваль в Америке) Critics Award Чикаго
Сэмпл: http://yadi.sk/d/IctrN-feRMEMj
Тип релиза: BDRip 720p
Контейнер: DVD-Video
Видео: MP4 1280:720 {16:9}2 206 Kbps 60 FPS
Аудио: ПОЛЬСКИЙ:РОМАНИ 6 channels 48.0 KHz 576 Kbps
Формат субтитров: hardsub (неотключаемые)

Доступно только для пользователей






Прикрепления: 2819238.jpg(466Kb) · 4960284.jpg(559Kb) · 6732128.jpg(605Kb) · 7920472.jpg(437Kb) · 6575702.jpg(326Kb)


Сообщение отредактировал murrshako - Воскресенье, 14.09.2014, 19:55
 
murrshakoДата: Среда, 04.06.2014, 06:58 | Сообщение # 3
Группа: Администраторы
Сообщений: 2046
Репутация: 55
Статус: Offline


СКАЧАТЬ ФИЛЬМ В КАЧЕСТВЕ DVD 5

PAPUSHA 2013Г. DVD 5 4.37

Video
ID : 224 (0xE0)
Format : MPEG Video
Format version : Version 2
Format profile : Main@Main
Format settings, BVOP : Yes
Format settings, Matrix : Custom
Format settings, GOP : M=3, N=12
Duration : 10mn 27s
Bit rate mode : Variable
Bit rate : 4 602 Kbps
Maximum bit rate : 9 000 Kbps
Width : 720 pixels
Height : 576 pixels
Display aspect ratio : 16:9
Frame rate : 25.000 fps
Standard : PAL
Color space : YUV
Chroma subsampling : 4:2:0
Bit depth : 8 bits
Scan type : Progressive
Scan order : Top Field First
Compression mode : Lossy
Bits/(Pixel*Frame) : 0.444
Stream size : 344 MiB (94%)

Audio
ID : 189 (0xBD)-128 (0x80)
Format : AC-3
Format/Info : Audio Coding 3
Mode extension : CM (complete main)
Muxing mode : DVD-Video
Duration : 10mn 27s
Bit rate mode : Constant
Bit rate : 192 Kbps
Channel(s) : 2 channels
Channel positions : Front: L R
Sampling rate : 48.0 KHz
Bit depth : 16 bits
Compression mode : Lossy
Delay relative to video : -400ms
Stream size : 14.4 MiB (4%)

ПЕРЕХОД В ОБЛАКО МАИЛ РУ СКАЧАТЬ ФИЛЬМ
Прикрепления: 5691285.jpg(155Kb)


Сообщение отредактировал murrshako - Вторник, 10.06.2014, 14:27
 
murrshakoДата: Вторник, 10.06.2014, 14:17 | Сообщение # 4
Группа: Администраторы
Сообщений: 2046
Репутация: 55
Статус: Offline
СКАЧАТЬ ФИЛЬМ ПО ПРЯМОЙ ССЫЛКЕ С ОБЛАКО МАЙЛ РУ В КАЧЕСТВЕ FULL HD 720P 60 FPS ЗВУК 5.1 (6 КАНАЛОВ)

ПЕРЕХОД УЗНАТЬ ЧТО ТАКОЕ ФИЛЬМ В КАЧЕСТВЕ 60 FPS
http://murrshako-rom.ucoz.ru/forum/7-208-1



Format : AVI
Format/Info : Audio Video Interleave
File size : 1.13 GiB
Duration : 1h 4mn
Overall bit rate : 2 525 Kbps
Writing application : Lavf54.63.104
Writing library : Boilsoft AVI tool build 1/release

Video
ID : 0
Format : AVC
Format/Info : Advanced Video Codec
Format profile : Main@L3.2
Format settings, CABAC : Yes
Format settings, ReFrames : 1 frame
Codec ID : H264
Duration : 1h 4mn
Bit rate : 2 207 Kbps
Width : 1 280 pixels
Height : 720 pixels
Display aspect ratio : 16:9
Frame rate mode : Variable
Frame rate : 60.000 fps
Color space : YUV
Chroma subsampling : 4:2:0
Bit depth : 8 bits
Scan type : Progressive
Bits/(Pixel*Frame) : 0.040
Stream size : 1 003 MiB (87%)
Writing library : x264 core 129

СКАЧАТЬ 1-Ю ЧАСТЬ ФИЛЬМА В КАЧЕСТВЕ FULL HD 720P 60 FPS (РАЗМЕР 1.13ГИГ)

Доступно только для пользователей

СКАЧАТЬ 2-ЧАСТЬ ФИЛЬМА В КАЧЕСТВЕ FULL HD 720 60 FPS (РАЗМЕР 1.13 ГИГ)

Доступно только для пользователей

СКРИНШОТЫ ФИЛЬМА






Прикрепления: 9786500.jpg(367Kb) · 6295570.jpg(208Kb) · 9549964.jpg(481Kb) · 9753001.jpg(499Kb) · 7356417.jpg(307Kb)


Сообщение отредактировал murrshako - Воскресенье, 14.09.2014, 19:51
 
murrshakoДата: Пятница, 01.08.2014, 12:37 | Сообщение # 5
Группа: Администраторы
Сообщений: 2046
Репутация: 55
Статус: Offline
ФИЛЬМ ПАПУША С РУССКИМИ ТИТРАМИ

СМОТРЕТЬ 1-Ю ЧАСТЬ ФИЛЬМА В КАЧЕСТВЕ HD 720P С РУССКИМИ ТИТРАМИ



СМОТРЕТЬ 2-Ю ЧАСТЬ ФИЛЬМА В КАЧЕСТВЕ HD 720P С РУССКИМИ ТИТРАМИ

Доступно только для пользователей

 
ЦЫГАНЕ=ROMA=Cingaris=GYPSIES=CIGANOS=吉普賽人=ZINGARI=जिप्सФорум » ЦЫГАНСКИЙ РАЗДЕЛ » ФИЛЬМЫ НА ЦЫГАНСКУЮ ТЕМАТИКУ FULL HD 720P 60 FPS » Папуша / Papusza 2013г. (Жанр: историческое, биография(русские титры))
Страница 1 из 212»
Поиск:

тест скорости интернета
| Copyright MyCorp © 2017 | |