благодарю!!ромалэ
ЯндексЯндекс. ДеньгиХочу такую же кнопку

http://murrshako-rom.ucoz.ru$724.67$724.67Сколько стоит ваш?

Пой, цыган / Canta Gitano 1981год - ЦЫГАНЕ=ROMA=Cingaris=GYPSIES=CIGANOS=吉普賽人=ZINGARI=जिप्सФорум
RADIO

GIPSY VOICE
radio

ЦЫГАНСКИЕ СТРУНЫ
радио

Вторник, 30.05.2017, 08:37
Главная
Регистрация
Вход
Цыганский портал!!!приветствую ромалэ!!зачан!!
Приветствую Вас Гость | RSS
[ Новые сообщения · Участники · Правила форума · Поиск · RSS ]
Страница 1 из 11
ЦЫГАНЕ=ROMA=Cingaris=GYPSIES=CIGANOS=吉普賽人=ZINGARI=जिप्सФорум » ЦЫГАНСКИЙ РАЗДЕЛ » ФИЛЬМЫ НА ЦЫГАНСКУЮ ТЕМАТИКУ FULL HD 720P 60 FPS » Пой, цыган / Canta Gitano 1981год (Испания Жанр: Драма, фламенко,(русские титры))
Пой, цыган / Canta Gitano 1981год
murrshakoДата: Понедельник, 09.06.2014, 18:42 | Сообщение # 1
Группа: Администраторы
Сообщений: 2041
Репутация: 55
Статус: Offline
Пой, цыган / Canta Gitano
picСтрана: Испания
Жанр: Драма, фламенко, короткий метр
Год выпуска: 1981
Продолжительность: 00:09:50
Перевод: Субтитры [omavkome (нем.); Handino (исп.)]
Cубтитры: русские
Режиссер: Тони Гатлиф / Tony Gatlif


fВ ролях: Марио Майа / Mario Maya, Мануэль де Паула / Manuel de Paula, Анхель Кортес / Ángel Cortés, Тони Гатлиф / Tony Gatlif, Патрик Хиллинг / Patrick Hilling, Мари-Элен Рудель / Marie-Hélène Rudel, Даниэль Кенингсберг / Daniel Kenigsberg, Бетти Берр / Betty Berr
Описание: Музыкальный короткометражный фильм об уничтожении цыган нацистами во время Второй мировой войны. Часть цыган отправляют на поезде в концлагерь, остальные цыгане сидят в бараках, за колючей проволокой и пытаются с помощью пения и танца фламенко выразить свой протест, зажечь себя на борьбу.
Доп. информация: Фильм был переиздан в качестве бонуса на DVD во французской версии фильма “Vengo”. Рип взят с раздачи http://rutracker.org/forum/viewtopic.php?t=1298137, (спасибо @ssl@ ), аналогичный рип есть на KG. В раздачу добавлены русские субтитры (перевод на слух диалогов и приказов немецких надсмотрщиков и исполняемых песен).

БОНУС ТОЛЬКО ЗАРЕГИСТРИРОВАННЫМ ЛИЦАМ ЦЫГАНСКОЙ НАЦИОНАЛЬНОСТИ И НЕ ОЧЕНЬ
ПРОСМОТР ФИЛЬМА В КАЧЕСТВЕ FULL HD 720р ВО ВЕСЬ ЭКРАН БЕЗ ЧЕРНЫХ ПОЛОС 60 FPS

Доступно только для пользователей


Прикрепления: 3127333.jpg(29Kb)
 
murrshakoДата: Понедельник, 09.06.2014, 18:44 | Сообщение # 2
Группа: Администраторы
Сообщений: 2041
Репутация: 55
Статус: Offline
Пой, цыган / Canta Gitano
picСтрана: Испания
Жанр: Драма, фламенко, короткий метр
Год выпуска: 1981
Продолжительность: 00:09:50
Перевод: Субтитры [omavkome (нем.); Handino (исп.)]
Cубтитры: русские
Режиссер: Тони Гатлиф / Tony GatlifВ ролях: Марио Майа / Mario Maya, Мануэль де Паула / Manuel de Paula, Анхель Кортес / Ángel Cortés, Тони Гатлиф / Tony Gatlif, Патрик Хиллинг / Patrick Hilling, Мари-Элен Рудель / Marie-Hélène Rudel, Даниэль Кенингсберг / Daniel Kenigsberg, Бетти Берр / Betty Berr
Описание: Музыкальный короткометражный фильм об уничтожении цыган нацистами во время Второй мировой войны. Часть цыган отправляют на поезде в концлагерь, остальные цыгане сидят в бараках, за колючей проволокой и пытаются с помощью пения и танца фламенко выразить свой протест, зажечь себя на борьбу.
Доп. информация: Фильм был переиздан в качестве бонуса на DVD во французской версии фильма “Vengo”. Рип взят с раздачи http://rutracker.org/forum/viewtopic.php?t=1298137, (спасибо @ssl@ ), аналогичный рип есть на KG. В раздачу добавлены русские субтитры (перевод на слух диалогов и приказов немецких надсмотрщиков и исполняемых песен).
Огромное спасибо omavkome за перевод с немецкого!Качество видео: DVDRip
Формат видео: AVI
Видео: MPEG-4, 588x352 (1.670), 25 fps, 1609 kbps
Аудио: MPEG Audio (Layer 3), 48 kHz, 112 kbps, 2 ch
Формат субтитров: softsub (SRT)

ПЕРЕХОД СКАЧАТЬ ФИЛЬМ С ТОРРЕНТА

 
murrshakoДата: Вторник, 10.06.2014, 14:00 | Сообщение # 3
Группа: Администраторы
Сообщений: 2041
Репутация: 55
Статус: Offline

СКАЧАТЬ ФИЛЬМ В КАЧЕСТВЕ FULL HD 720 60 FPS ЗВУК 5.12 (6 КАНАЛОВ) С ОБЛАКА МАИЛ РУ ПО ПРЯМОЙ ССЫЛКЕ (САМАЯ БЫСТРАЯ ЗАКАЧКА ФИЛЬМА (350МБ)



Video
ID : 1
Format : AVC
Format/Info : Advanced Video Codec
Format profile : Main@L3.2
Format settings, CABAC : Yes
Format settings, ReFrames : 1 frame
Codec ID : avc1
Codec ID/Info : Advanced Video Coding
Duration : 1h 36mn
Bit rate : 2 206 Kbps
Width : 1 280 pixels
Height : 720 pixels
Display aspect ratio : 16:9
Frame rate mode : Constant
Frame rate : 60.000 fps
Color space : YUV
Chroma subsampling : 4:2:0
Bit depth : 8 bits
Scan type : Progressive
Bits/(Pixel*Frame) : 0.040
Stream size : 1.48 GiB (85%)
Writing library : x264 core 129
................
Audio
ID : 2
Format : AAC
Format/Info : Advanced Audio Codec
Format profile : LC
Codec ID : 40
Duration : 1h 36mn
Duration_FirstFrame : 64ms
Bit rate mode : Constant
Bit rate : 384 Kbps
Channel(s) : 6 channels
Channel positions : Front: L C R, Side: L R, LFE
Sampling rate : 48.0 KHz
Compression mode : Lossy
Stream size : 264 MiB (15%)



Доступно только для пользователей


Прикрепления: 7860776.png(7Kb) · 3944627.png(61Kb)


Сообщение отредактировал murrshako - Вторник, 10.06.2014, 15:27
 
ЦЫГАНЕ=ROMA=Cingaris=GYPSIES=CIGANOS=吉普賽人=ZINGARI=जिप्सФорум » ЦЫГАНСКИЙ РАЗДЕЛ » ФИЛЬМЫ НА ЦЫГАНСКУЮ ТЕМАТИКУ FULL HD 720P 60 FPS » Пой, цыган / Canta Gitano 1981год (Испания Жанр: Драма, фламенко,(русские титры))
Страница 1 из 11
Поиск:

тест скорости интернета
| Copyright MyCorp © 2017 | |