благодарю!!ромалэ
ЯндексЯндекс. ДеньгиХочу такую же кнопку

http://murrshako-rom.ucoz.ru$724.67$724.67Сколько стоит ваш?

Мои цыгане - ЦЫГАНЕ=ROMA=Cingaris=GYPSIES=CIGANOS=吉普賽人=ZINGARI=जिप्सФорум
RADIO

GIPSY VOICE
radio

ЦЫГАНСКИЕ СТРУНЫ
радио

Пятница, 21.07.2017, 23:38
Главная
Регистрация
Вход
Цыганский портал!!!приветствую ромалэ!!зачан!!
Приветствую Вас Гость | RSS
[ Новые сообщения · Участники · Правила форума · Поиск · RSS ]
Страница 1 из 11
ЦЫГАНЕ=ROMA=Cingaris=GYPSIES=CIGANOS=吉普賽人=ZINGARI=जिप्सФорум » ЦЫГАНСКИЙ РАЗДЕЛ » ФИЛЬМЫ НА ЦЫГАНСКУЮ ТЕМАТИКУ FULL HD 720P 60 FPS » Мои цыгане (про-во СССР Режиссёр: Лейла Горделадзе 1987)
Мои цыгане
murrshakoДата: Среда, 09.07.2014, 14:06 | Сообщение # 1
Группа: Администраторы
Сообщений: 2051
Репутация: 55
Статус: Offline


Мои цыгане
picЖанр: драма
Год выпуска: 1987
Продолжительность: 01:13:30
Режиссёр: Лейла Горделадзе
В ролях: Михай Фусу, Каха Гиоргадзе, Нази Кечакмадзе, Мито Мачутадзе, Радика Санду, Светлана Тома, Артуро Жуков, Софья Горшкова, Владимир Сакизчи, Тамара Мамулашвили, Михаил Вашадзе, Гела Гиоргадзе, Цисана Гоксадзе, Гулчина Дадиани, Юрий Джиджеишвили, Русудан Квливидзе, Гоча Курашвили, Павле Ломинадзе, Говен Чейшвили
Описание: По автобиографической повести Нодара Думбадзе "Цыгане".
Действие фильма происходит во время Великой Отечественной войны в грузинской деревне Зенобани, где на время остановился цыганский табор. Поющие и танцующие люди очень понравились мальчику Нодари. Он подружился с ними и по просьбе деревенских женщин, чьи мужья и сыновья были на фронте, стал приводить в их дома гадалок. Цыганки, не беря денег, вселяли надежду в сердца жителей деревни. Но, уходя из деревни, цыганки прихватили с собой немного деревенского добра...
Доп. информация: Сценарист: Лейла Горделадзе
Оператор: Игорь Крепс
Композитор: Иосиф Кечекмадзе



Прикрепления: 6220894.jpg(25Kb)
 
murrshakoДата: Среда, 09.07.2014, 14:10 | Сообщение # 2
Группа: Администраторы
Сообщений: 2051
Репутация: 55
Статус: Offline
150\60FPS\moi zigane.avi
Format : AVI
Format/Info : Audio Video Interleave
Format profile : OpenDML
File size : 1.81 GiB
Duration : 1h 13mn
Overall bit rate : 3 532 Kbps
Writing application : Lavf54.63.104

Video
ID : 0
Format : AVC
Format/Info : Advanced Video Codec
Format profile : Main@L3.2
Format settings, CABAC : Yes
Format settings, ReFrames : 1 frame
Codec ID : H264
Duration : 1h 13mn
Bit rate : 3 188 Kbps
Width : 1 280 pixels
Height : 720 pixels
Display aspect ratio : 16:9
Frame rate mode : Variable
Frame rate : 60.000 fps
Color space : YUV
Chroma subsampling : 4:2:0
Bit depth : 8 bits
Scan type : Progressive
Bits/(Pixel*Frame) : 0.058
Stream size : 1.64 GiB (90%)
Writing library : x264 core 129
Encoding settings
Audio
ID : 1
Format : AC-3
Format/Info : Audio Coding 3
Codec ID : 00001000-0000-0020-8000-00AA00389B71
Duration : 1h 13mn
Bit rate : 320 Kbps
Channel(s) : 6 channels
Channel positions : Front: L C R, Back: L R, LFE
Sampling rate : 48.0 KHz
Bit depth : 16 bits
Compression mode : Lossy
Stream size : 168 MiB (9%)
Interleave, duration : 32 ms (1.92 video frames)

СКАЧАТЬ ФИЛЬМ В КАЧЕСТВЕ 1280 НА 720 60 FPS 5.1 ЗВУК

https://cloud.mail.ru/public/73d2e6d4f3ac/moi%20zigane.avi



Прикрепления: 3076829.jpg(431Kb) · 8137015.jpg(466Kb) · 4715714.jpg(466Kb)
 
ЦЫГАНЕ=ROMA=Cingaris=GYPSIES=CIGANOS=吉普賽人=ZINGARI=जिप्सФорум » ЦЫГАНСКИЙ РАЗДЕЛ » ФИЛЬМЫ НА ЦЫГАНСКУЮ ТЕМАТИКУ FULL HD 720P 60 FPS » Мои цыгане (про-во СССР Режиссёр: Лейла Горделадзе 1987)
Страница 1 из 11
Поиск:

тест скорости интернета
| Copyright MyCorp © 2017 | |