благодарю!!ромалэ
ЯндексЯндекс. ДеньгиХочу такую же кнопку

http://murrshako-rom.ucoz.ru$724.67$724.67Сколько стоит ваш?

Дева и цыган / Virgin and the Gypsy, The - ЦЫГАНЕ=ROMA=Cingaris=GYPSIES=CIGANOS=吉普賽人=ZINGARI=जिप्सФорум
RADIO

GIPSY VOICE
radio

ЦЫГАНСКИЕ СТРУНЫ
радио

Пятница, 20.10.2017, 06:36
Главная
Регистрация
Вход
Цыганский портал!!!приветствую ромалэ!!зачан!!
Приветствую Вас Гость | RSS
[ Новые сообщения · Участники · Правила форума · Поиск · RSS ]
Страница 1 из 11
ЦЫГАНЕ=ROMA=Cingaris=GYPSIES=CIGANOS=吉普賽人=ZINGARI=जिप्सФорум » ЦЫГАНСКИЙ РАЗДЕЛ » ФИЛЬМЫ НА ЦЫГАНСКУЮ ТЕМАТИКУ FULL HD 720P 60 FPS » Дева и цыган / Virgin and the Gypsy, The (Страна: Великобритания Год: 1970)
Дева и цыган / Virgin and the Gypsy, The
murrshakoДата: Вторник, 22.07.2014, 15:36 | Сообщение # 1
Группа: Администраторы
Сообщений: 2053
Репутация: 55
Статус: Offline

Дева и цыган / Virgin and the Gypsy, The

Режиссер: Кристофер Майлз

Сценарист: Алан Платер

Оператор: Нигел Уке

Композитор: Патрик Говерс

Продюсеры: Кеннет Харпер, Дмитрий Де Грюнвольд

Страна: Великобритания

Год: 1970

Актеры: Джоанна Шимкус, Франко Неро, Онор Блэкмэн, Марк Бёрнс, Фэй Комптон, Морис Денем, Кэй Уолш, Имоджен Хэссалл, Харриет Харпер, Норман Бёрд, Джереми Баллок, Ян Чаппелл, Хелен Бут

СМОТРЕТЬ ФИЛЬМ ОНЛАЙН ПО ЧАСТЯМ
ПЕРЕХОД СМОТРЕТЬ ПЕРВЫЕ 10 МИНУТ ФИЛЬМА

СО ВТОРОГО ЭПИЗОДА (окно плеера №2)МОЖНО ВЫБРАТЬ ФУНКЦИЮ ТИТРОВ -иконка выглядит как (СС).....МОЖНО ВЫБРАТЬ ФУНКЦИЮ ПЕРЕВОДА НА РУССКИЙ ЯЗЫК

КЛИКНУТЬ НА ИКОНКУ ПРОИГРЫВАТЕЛЯ С ВИДУ ПОХОЖУЮ НА ГАЙКУ (там по умолчанию можно выставить качество 240=320=480=

ВОТ ТАК ВЫГЛЯДИТ



ДАЛЕЕ НАЖАТЬ (on) выйдет всплывающая строка и предложение перевести на какой язык ...надо идти вниз и выбрать русский....



вот так выглядит видео с русскими титрами


ОТКРЫТЬ СПАЙЛЕР ДЛЯ ПРОСМОТРА ВИДЕО ФИЛЬМА НАДО ОТКРЫТЬ СПАЙЛЕР
ПЕРЕВОД ДОСТУПЕН НАЧИНАЯ СО 2 ЧАСТИ ВИДЕО ФИЛЬМА
Прикрепления: 6200068.jpg(118Kb) · 6573866.jpg(227Kb) · 4858593.jpg(234Kb)


Сообщение отредактировал murrshako - Понедельник, 19.01.2015, 16:25
 
murrshakoДата: Понедельник, 13.10.2014, 14:04 | Сообщение # 2
Группа: Администраторы
Сообщений: 2053
Репутация: 55
Статус: Offline
Virgin And The Gypsy (1970) 60 FPS MP4=1 часть).mp4
Format : MPEG-4
Format profile : Base Media
Codec ID : isom
File size : 1.54 GiB
Duration : 45mn 22s
Overall bit rate mode : Variable
Overall bit rate : 4 848 Kbps
Encoded date : UTC 2014-10-11 12:39:14
Tagged date : UTC 2014-10-11 12:39:14

Video
ID : 1
Format : AVC
Format/Info : Advanced Video Codec
Format profile : Main@L3.2
Format settings, CABAC : Yes
Format settings, ReFrames : 1 frame
Codec ID : avc1
Codec ID/Info : Advanced Video Coding
Duration : 45mn 22s
Bit rate : 4 644 Kbps
Width : 1 280 pixels
Height : 720 pixels
Display aspect ratio : 16:9
Frame rate mode : Constant
Frame rate : 60.000 fps
Color space : YUV
Chroma subsampling : 4:2:0
Bit depth : 8 bits
Scan type : Progressive
Bits/(Pixel*Frame) : 0.084
Stream size : 1.48 GiB (96%)
Writing library : x264 core 129
Tagged date : UTC 2014-10-11 12:43:23

Audio
ID : 2
Format : AAC
Format/Info : Advanced Audio Codec
Format profile : LC
Codec ID : 40
Duration : 45mn 22s
Duration_FirstFrame : 64ms
Bit rate mode : Variable
Bit rate : 181 Kbps
Maximum bit rate : 384 Kbps
Channel(s) : 6 channels
Channel positions : Front: L C R, Side: L R, LFE
Sampling rate : 48.0 KHz
Compression mode : Lossy
Stream size : 58.7 MiB (4%)
Tagged date : UTC 2014-10-11 12:43:23

ПЕРЕХОД СКАЧАТЬ ФИЛЬМ В КАЧЕСТВЕ 1280-720 ЗВУКОМ 5.1 60 FPS

Доступно только для пользователей

Доступно только для пользователей



ОТКРЫТЬ СКРИНШОТЫ

Прикрепления: 8309310.jpg(535Kb) · 6527446.jpg(544Kb) · 1553720.jpg(538Kb) · 9013614.jpg(558Kb) · 5716388.jpg(517Kb)


Сообщение отредактировал murrshako - Воскресенье, 04.01.2015, 22:25
 
murrshakoДата: Вторник, 14.10.2014, 16:05 | Сообщение # 3
Группа: Администраторы
Сообщений: 2053
Репутация: 55
Статус: Offline

СМОТРЕТЬ ФИЛЬМ ВО ВЕСЬ ЭКРАН В КАЧЕСТВЕ 720Р =БЕЗ ПЕРЕВОДА НА РУССКИЙ=1-ЧАСТЬ ФИЛЬМА


Доступно только для пользователей

СМОТРЕТЬ ФИЛЬМ ВО ВЕСЬ ЭКРАН В КАЧЕСТВЕ 720Р =БЕЗ ПЕРЕВОДА НА РУССКИЙ=2-ЧАСТЬ ФИЛЬМА



Доступно только для пользователей

Я СОМНЕВАЛСЯ ..СТОИТ ЛИ ФИЛЬМ БЕЗ ПЕРЕВОДА НА РУССКИЙ ЯЗЫК СТАВИТЬ НА ФОРУМЕ...НО СТОИТ 100% ТАК КАК ДОСТАТОЧНО ПОСМОТРЕТЬ СТАТИСТИКУ НАШИХ ПОСЕТИТЕЛЕЙ ..ТО НАГЛЯДНЫМ ОБРАЗОМ ПОНЯТНО....ЧТО ОГРОМНЫЙ % ПОЛЬЗОВАТЕЛЕЙ НЕ ИЗ РОССИИ И СКОРЕЕ ВСЕГО АНГЛИЙСКИЙ ЯЗЫК БУДЕТ ИДЕАЛЬНЫМ ВАРИАНТОМ ДЛЯ ВСЕХ ПОЛЬЗОВАТЕЛЕЙ НЕ ИЗ РОССИИ


Сообщение отредактировал murrshako - Среда, 15.10.2014, 13:07
 
ЦЫГАНЕ=ROMA=Cingaris=GYPSIES=CIGANOS=吉普賽人=ZINGARI=जिप्सФорум » ЦЫГАНСКИЙ РАЗДЕЛ » ФИЛЬМЫ НА ЦЫГАНСКУЮ ТЕМАТИКУ FULL HD 720P 60 FPS » Дева и цыган / Virgin and the Gypsy, The (Страна: Великобритания Год: 1970)
Страница 1 из 11
Поиск:

тест скорости интернета
| Copyright MyCorp © 2017 | |