благодарю!!ромалэ
ЯндексЯндекс. ДеньгиХочу такую же кнопку

http://murrshako-rom.ucoz.ru$724.67$724.67Сколько стоит ваш?

цыганочка 12-и лет сбежала с отчимом .. - ЦЫГАНЕ=ROMA=Cingaris=GYPSIES=CIGANOS=吉普賽人=ZINGARI=जिप्सФорум
RADIO

GIPSY VOICE
radio

ЦЫГАНСКИЕ СТРУНЫ
радио

Суббота, 22.07.2017, 05:43
Главная
Регистрация
Вход
Цыганский портал!!!приветствую ромалэ!!зачан!!
Приветствую Вас Гость | RSS
[ Новые сообщения · Участники · Правила форума · Поиск · RSS ]
Страница 1 из 11
ЦЫГАНЕ=ROMA=Cingaris=GYPSIES=CIGANOS=吉普賽人=ZINGARI=जिप्सФорум » ЦЫГАНСКИЙ РАЗДЕЛ » ФИЛЬМЫ НА ЦЫГАНСКУЮ ТЕМАТИКУ FULL HD 720P 60 FPS » цыганочка 12-и лет сбежала с отчимом .. (ЦИКЛ РЕАЛИТИ ШОУ =ПРЯМОЙ ЭФИР=КАНАЛ РОССИЯ 1)
цыганочка 12-и лет сбежала с отчимом ..
murrshakoДата: Понедельник, 04.08.2014, 19:58 | Сообщение # 1
Группа: Администраторы
Сообщений: 2051
Репутация: 55
Статус: Offline


Прикрепления: 1268441.jpg(433Kb)
 
murrshakoДата: Понедельник, 04.08.2014, 20:09 | Сообщение # 2
Группа: Администраторы
Сообщений: 2051
Репутация: 55
Статус: Offline
Format : AVI
Format/Info : Audio Video Interleave
File size : 872 MiB
Duration : 47mn 47s
Overall bit rate : 2 552 Kbps
Writing application : Lavf54.63.104

Video
ID : 0
Format : AVC
Format/Info : Advanced Video Codec
Format profile : Main@L3.2
Format settings, CABAC : Yes
Format settings, ReFrames : 1 frame
Codec ID : H264
Duration : 47mn 47s
Bit rate : 2 207 Kbps
Width : 1 280 pixels
Height : 720 pixels
Display aspect ratio : 16:9
Frame rate mode : Variable
Frame rate : 60.000 fps
Color space : YUV
Chroma subsampling : 4:2:0
Bit depth : 8 bits
Scan type : Progressive
Bits/(Pixel*Frame) : 0.040
Stream size : 757 MiB (87%)
Writing library

Audio
ID : 1
Format : AC-3
Format/Info : Audio Coding 3
Codec ID : 00001000-0000-0020-8000-00AA00389B71
Duration : 47mn 47s
Bit rate : 320 Kbps
Channel(s) : 6 channels
Channel positions : Front: L C R, Back: L R, LFE
Sampling rate : 48.0 KHz
Bit depth : 16 bits
Compression mode : Lossy
Stream size : 109 MiB (13%)
Interleave, duration : 32 ms (1.92 video frames)



ПЕРЕХОД СКАЧАТЬ ШОУ В КАЧЕСТВЕ HD 1280-720 60 FPS ЗВУК 5.1

Доступно только для пользователей


Сообщение отредактировал murrshako - Воскресенье, 14.09.2014, 19:44
 
ЦЫГАНЕ=ROMA=Cingaris=GYPSIES=CIGANOS=吉普賽人=ZINGARI=जिप्सФорум » ЦЫГАНСКИЙ РАЗДЕЛ » ФИЛЬМЫ НА ЦЫГАНСКУЮ ТЕМАТИКУ FULL HD 720P 60 FPS » цыганочка 12-и лет сбежала с отчимом .. (ЦИКЛ РЕАЛИТИ ШОУ =ПРЯМОЙ ЭФИР=КАНАЛ РОССИЯ 1)
Страница 1 из 11
Поиск:

тест скорости интернета
| Copyright MyCorp © 2017 | |