благодарю!!ромалэ
ЯндексЯндекс. ДеньгиХочу такую же кнопку

http://murrshako-rom.ucoz.ru$724.67$724.67Сколько стоит ваш?

Saura - Flamenco Flamenco -2010г - ЦЫГАНЕ=ROMA=Cingaris=GYPSIES=CIGANOS=吉普賽人=ZINGARI=जिप्सФорум
RADIO

GIPSY VOICE
radio

ЦЫГАНСКИЕ СТРУНЫ
радио

Понедельник, 23.10.2017, 02:06
Главная
Регистрация
Вход
Цыганский портал!!!приветствую ромалэ!!зачан!!
Приветствую Вас Гость | RSS
[ Новые сообщения · Участники · Правила форума · Поиск · RSS ]
Страница 1 из 11
ЦЫГАНЕ=ROMA=Cingaris=GYPSIES=CIGANOS=吉普賽人=ZINGARI=जिप्सФорум » ЦЫГАНСКИЙ РАЗДЕЛ » ФИЛЬМЫ НА ЦЫГАНСКУЮ ТЕМАТИКУ FULL HD 720P 60 FPS » Saura - Flamenco Flamenco -2010г (Испания Документальный, музыкальный(русские титры))
Saura - Flamenco Flamenco -2010г
murrshakoДата: Понедельник, 04.08.2014, 20:26 | Сообщение # 1
Группа: Администраторы
Сообщений: 2053
Репутация: 55
Статус: Offline



Фламенко Фламенко / Flamenco Flamenco
picСтрана: Испания
Студия: CAMEO MEDIA S.L.
Жанр: Документальный, музыкальный
Год выпуска: 2010
Продолжительность: 01:36:20

Перевод: Субтитры (Margarita-Cons, Handino)
Cубтитры: испанские, русские, французские
Оригинальная аудиодорожка: испанская
Режиссер: Карлос Саура / Carlos SauraВ ролях: Пако де Лусия / Paco de Lucía, Маноло Санлукар / Manolo Sanlúcar /, Хосе Мерсе / José Mercé, Сара Барас / Sara Baras, Эва Ла Йербабуэна / Eva la Yerbabuena, Эстрейа Моренте / Estrella Morente, Монтсе Кортес / Montse Cortés, Диего дель Морао / Diego del Morao, Мигель Поведа / Miguel Poveda, Давид Дорантес / David Dorantes, Диего Амадор / Diego Amador, Росио Молина / Rocío Molina, Мария Бала / María Bala, Израэль Гальван / Israel Galván, Аркангель / Arcángel, Эль Карпета / El Carpeta, Томатито / Tomatito, Мораито Чико / Moraíto Chico, Хосеми / Josemi, Нинья Пастори / Niña Pastori, Фаррукито / Farruquito, Мария Анхелес Фернандес / María Ángeles Fernández, Карлос Гарсия / Carlos García, Ла Тана / La Tana и другиеОписание: Шестнадцать лет назад вышел в свет фильм "Фламенко", в котором были показаны песни, танцы и музыка этого очаровательного, завораживающего искусства, фильм, который вошёл в историю классики музыкального кино.
"Фламенко, Фламенко" может считаться индивидуальным максимальным показателем особого способа реализации музыкальных фильмов Карлосом Саура, который выразил через свет и жизненный путь эволюцию пения, танцев и музыки этого очаровательного искусства, которое, по словам самого режиссёра, должно стать достоянием Человечества.
С опытом и знанием, которыми с течением времени насыщалась кинематография Карлоса Саура, мы углубляемся в пути развития настоящих талантов этого такого живого и динамического искусства, которым является фламенко, чтобы представить его новый фильм, который использует новые составные части, как в технической области, так и в повествовательной, превращая их в единое целое.
Фильм показывает, что существует самый могущественный новый фламенко, фламенко молодых талантов, которые ищут пути его развития и обновления как в Испании, так и за её пределами, хотя реальность этого искусства не может отражаться в его истинной форме без великих мастеров, живых легенд, которые являются гордостью Испании.
Этот фильм позволит зрителям всего мира снова насладиться искусством фламенко несравнимой красоты через музыку, танец и пение.

СМОТРЕТЬ БЕЗ ЧЕРНЫХ ПОЛОС В КАЧЕСТВЕ 720Р

Доступно только для пользователей
Прикрепления: 2404341.jpg(46Kb)
 
murrshakoДата: Понедельник, 04.08.2014, 20:56 | Сообщение # 2
Группа: Администраторы
Сообщений: 2053
Репутация: 55
Статус: Offline
Доп. информация:
Исходный DVD-диск из собственной коллекции.Изменения, внесённые в диск:
Удалены разделы, содержащие рекламу фильмов, диск собран заново, сценарий воспроизведения фильма полностью перепрограммирован, из 6 разделов VTS остались два. Аудио и видео потоки фильма и доп. материалов - без изменений, как в исходнике. Главное меню пересобрано и пересжато.
Добавлены испанские, русские, французские субтитры и меню выбора субтитров. В главное меню добавлен пункт “Subtítulos” (“Субтитры”), удалён пункт “Recomendamos” (“Мы рекомендуем”).
О переводе
Исходные тексты песен на испанском языке взяты с сайта официального дистрибьютора этого фильма во Франции студии Bodega Films, французские субтитры - с французской версии фильма (скачаны с сети). Перевод исполняемых песен выполнен с испанского языка.
В тех местах, где удалось найти ошибки в исходных испанских текстах – исправили. Французский перевод остался без изменений, с некоторым добавлением пропущенных повторяющихся фрагментов (автор перевода на французский - Evelyne Codazzi (YLF-vertalingen)).
MediaInfo исходника

Бонусы:
Tráiler – трейлер к фильму;
Making of - о том как снимался фильм, рассказ режиссёра, тех. персонала, участников фильма о съёмках, кадры со съёмок;
Galería de Imágenes - фотоколлекция, выполненная в виде слайд-шоу;
Меню: все меню на испанском языке;
Главное - динамичное, озвученное; Остальные – статичные;
Capítulos – переход к сценам фильма;
Subtítulos – выбор языка субтитров;
Audio – выбор аудиодорожки;
Extras – доп. материалы (бонусы)
Тип релиза: DVD9 (Custom)
Контейнер: DVD-Video
Видео: MPEG-2, PAL 16:9 (720x576) VBR (~ 7500 kbps, max. - 9100 kbps), Auto Letterboxed, 25 fps
Аудио: Español (Dolby AC3, 6 ch, 48 KHz, 448 Kbps )
Аудио 2: Español (Dolby AC3, 2 ch, 48 KHz, 192 Kbps)
Формат субтитров: prerendered (DVD/IDX+SUB)





.torrent скачан: 752 раза
Размер: 7.02 GB

Доступно только для пользователей

 
murrshakoДата: Понедельник, 04.08.2014, 21:16 | Сообщение # 3
Группа: Администраторы
Сообщений: 2053
Репутация: 55
Статус: Offline
Format : MPEG-4
Format profile : Base Media
Codec ID : isom
File size : 1.74 GiB
Duration : 1h 36mn
Overall bit rate : 2 594 Kbps
Writing application : Lavf54.63.104

Video
ID : 1
Format : AVC
Format/Info : Advanced Video Codec
Format profile : Main@L3.2
Format settings, CABAC : Yes
Format settings, ReFrames : 1 frame
Codec ID : avc1
Codec ID/Info : Advanced Video Coding
Duration : 1h 36mn
Bit rate : 2 206 Kbps
Width : 1 280 pixels
Height : 720 pixels
Display aspect ratio : 16:9
Frame rate mode : Constant
Frame rate : 60.000 fps
Color space : YUV
Chroma subsampling : 4:2:0
Bit depth : 8 bits
Scan type : Progressive
Bits/(Pixel*Frame) : 0.040
Stream size : 1.48 GiB (85%)
Writing library : x264 core 129
Encoding settings

Audio
ID : 2
Format : AAC
Format/Info : Advanced Audio Codec
Format profile : LC
Codec ID : 40
Duration : 1h 36mn
Duration_FirstFrame : 64ms
Bit rate mode : Constant
Bit rate : 384 Kbps
Channel(s) : 6 channels
Channel positions : Front: L C R, Side: L R, LFE
Sampling rate : 48.0 KHz
Compression mode : Lossy
Stream size : 264 MiB (15%)

Audio
ID : 2
Format : AAC
Format/Info : Advanced Audio Codec
Format profile : LC
Codec ID : 40
Duration : 1h 36mn
Duration_FirstFrame : 64ms
Bit rate mode : Constant
Bit rate : 384 Kbps
Channel(s) : 6 channels
Channel positions : Front: L C R, Side: L R, LFE
Sampling rate : 48.0 KHz
Compression mode : Lossy
Stream size : 264 MiB (15%)

СКРИНШОТЫ ФИЛЬМА



ПЕРЕХОД СКАЧАТЬ ФИЛЬМ В КАЧЕСТВЕ 1280-720Р 60 FPS ЗВУК 5.1

Доступно только для пользователей




Сообщение отредактировал murrshako - Воскресенье, 14.09.2014, 19:38
 
ЦЫГАНЕ=ROMA=Cingaris=GYPSIES=CIGANOS=吉普賽人=ZINGARI=जिप्सФорум » ЦЫГАНСКИЙ РАЗДЕЛ » ФИЛЬМЫ НА ЦЫГАНСКУЮ ТЕМАТИКУ FULL HD 720P 60 FPS » Saura - Flamenco Flamenco -2010г (Испания Документальный, музыкальный(русские титры))
Страница 1 из 11
Поиск:

тест скорости интернета
| Copyright MyCorp © 2017 | |