благодарю!!ромалэ
ЯндексЯндекс. ДеньгиХочу такую же кнопку

http://murrshako-rom.ucoz.ru$724.67$724.67Сколько стоит ваш?

Бароны=Принцы / Les Princes 1982г(русские титры) - ЦЫГАНЕ=ROMA=Cingaris=GYPSIES=CIGANOS=吉普賽人=ZINGARI=जिप्सФорум
RADIO

GIPSY VOICE
radio

ЦЫГАНСКИЕ СТРУНЫ
радио

Воскресенье, 25.06.2017, 16:57
Главная
Регистрация
Вход
Цыганский портал!!!приветствую ромалэ!!зачан!!
Приветствую Вас Гость | RSS
[ Новые сообщения · Участники · Правила форума · Поиск · RSS ]
Страница 1 из 11
ЦЫГАНЕ=ROMA=Cingaris=GYPSIES=CIGANOS=吉普賽人=ZINGARI=जिप्सФорум » ЦЫГАНСКИЙ РАЗДЕЛ » ФИЛЬМЫ НА ЦЫГАНСКУЮ ТЕМАТИКУ FULL HD 720P 60 FPS » Бароны=Принцы / Les Princes 1982г(русские титры) (Фильмотека Тони Гатлифа)
Бароны=Принцы / Les Princes 1982г(русские титры)
murrshakoДата: Четверг, 28.08.2014, 15:52 | Сообщение # 1
Группа: Администраторы
Сообщений: 2044
Репутация: 55
Статус: Offline
Бароны=Принцы / Les Princes 1982г
Фильмотека Тони Гатлифа



Страна: Франция
Студия: A.C.C. Babylone Films
Жанр: Драма
Год выпуска: 1983
Продолжительность: 01:35:35
Переиздание на DVD: Pathfinder Home Entertainment (Канада)
Год переиздание на DVD: 2010

Перевод - Handino
Cубтитры: русские, английские
Оригинальная аудиодорожка: французская
Режиссер: Тони Гатлиф / Tony Gatlif

В ролях: Жерар Дармон / Gerard Darmon (Нара) – Мюз Дальбрэ / Muse Dalbray (Бабушка) – Селин Милитон / Celine Militon (Зорка) – Конча Тавора / Concha Tavora (Миральда) – Акоп Арсланян / Hagop Arslanian (Чико) – Тони Либриззи / Tony Librizzi(Тони) - Тони Гатлиф / Tony Gatlif (Лео) - Доминик Морен / Dominique Maurin (Петитон) – Мари-Элен Рюдель / Marie-Hélène Rudel (Бижо) - Фарид Шопель / Farid Chopel (Сумасшедший)
Описание:
Цыганская семья: Нара, его дочь-первоклассница и престарелая мать, проживают на окраине небольшого посёлка на северо-востоке Франции в запущенной муниципальной квартире, под постоянной угрозой выселения, не имея ни постоянной работы, ни средств на существование, в атмосфере всеобщего безразличия и равнодушия...
В этом фильме Тони Гатлиф подымает извечную тему безразличного отношения к цыганам со стороны французских властей, прессы, этих “Принцев” никогда не волновала судьба цыган и иммигрантов, начиная с времён Людовика XVI.

Доступно только для пользователей

Прикрепления: 3376864.jpg(64Kb)
 
murrshakoДата: Четверг, 28.08.2014, 16:30 | Сообщение # 2
Группа: Администраторы
Сообщений: 2044
Репутация: 55
Статус: Offline



Доп. информация:
Исходный DVD-диск из собственной коллекции.
Изменения, внесённые в диск:
Удалены 6 разделов VTS, содержащие рекламу фильмов. Сценарий воспроизведения диска полностью перепрограммирован. Аудио и видео потоки фильма - без изменений, как в исходнике.
Все меню русифицированы, дизайн остался от фирмы Pathfinder, издателя DVD.
Добавлены русские субтитры, перевод - с английских субтитров.
DVD-Info оригинального диска

Тип релиза: DVD5 (Custom)
Контейнер: DVD-Video

Видео: Mpeg-2, NTSC 4:3 (720x480) VBR (6500 kbps), 29,97 fps
Аудио: Francais (Dolby AC3, 2 ch, 48 kHz, 448 kbps)



.torrent скачан: 254 раза
Размер: 3.76 GB
http://rutracker.org/forum/viewtopic.php?t=4152136

Прикрепления: 0636127.png(728Kb)
 
murrshakoДата: Пятница, 29.08.2014, 13:45 | Сообщение # 3
Группа: Администраторы
Сообщений: 2044
Репутация: 55
Статус: Offline
eneral
Complete name : D:\Кассандра 1-50\Tony Gatlif - Les Princes (1982) 60FPS DVD-5.mp4
Format : MPEG-4
Format profile : Base Media
Codec ID : isom
File size : 1.54 GiB
Duration : 1h 35mn
Overall bit rate mode : Variable
Overall bit rate : 2 309 Kbps
Writing application : Lavf54.63.104

Video
ID : 1
Format : AVC
Format/Info : Advanced Video Codec
Format profile : Main@L3.2
Format settings, CABAC : Yes
Format settings, ReFrames : 1 frame
Codec ID : avc1
Codec ID/Info : Advanced Video Coding
Duration : 1h 35mn
Bit rate : 2 206 Kbps
Width : 1 280 pixels
Height : 720 pixels
Display aspect ratio : 16:9
Frame rate mode : Variable
Frame rate : 59.997 fps
Minimum frame rate : 30.000 fps
Maximum frame rate : 60.000 fps
Color space : YUV
Chroma subsampling : 4:2:0
Bit depth : 8 bits
Scan type : Progressive
Bits/(Pixel*Frame) : 0.040
Stream size : 1.47 GiB (95%)
Writing library : x264 core 129
Encoding settings

Audio
ID : 2
Format : AAC
Format/Info : Advanced Audio Codec
Format profile : LC
Codec ID : 40
Duration : 1h 35mn
Duration_FirstFrame : 64ms
Bit rate mode : Variable
Bit rate : 101 Kbps
Maximum bit rate : 384 Kbps
Channel(s) : 6 channels
Channel positions : Front: L C R, Side: L R, LFE
Sampling rate : 48.0 KHz
Compression mode : Lossy
Stream size : 69.0 MiB (4%)
ПЕРЕХОД СКАЧАТЬ ФИЛЬМ С ОБЛАКА В КАЧЕСТВЕ 1280-720Р ЗВУК 5.1 60 FPS

Доступно только для пользователей

СКРИНШОТЫ




Прикрепления: 3767870.jpg(473Kb) · 4371085.jpg(373Kb) · 6666495.jpg(428Kb) · 8845511.jpg(460Kb) · 6840654.jpg(458Kb)


Сообщение отредактировал murrshako - Воскресенье, 14.09.2014, 19:31
 
ЦЫГАНЕ=ROMA=Cingaris=GYPSIES=CIGANOS=吉普賽人=ZINGARI=जिप्सФорум » ЦЫГАНСКИЙ РАЗДЕЛ » ФИЛЬМЫ НА ЦЫГАНСКУЮ ТЕМАТИКУ FULL HD 720P 60 FPS » Бароны=Принцы / Les Princes 1982г(русские титры) (Фильмотека Тони Гатлифа)
Страница 1 из 11
Поиск:

тест скорости интернета
| Copyright MyCorp © 2017 | |