благодарю!!ромалэ
ЯндексЯндекс. ДеньгиХочу такую же кнопку

http://murrshako-rom.ucoz.ru$724.67$724.67Сколько стоит ваш?

Сам по себе / Korkoro / Liberte 2009г(русские титры) - ЦЫГАНЕ=ROMA=Cingaris=GYPSIES=CIGANOS=吉普賽人=ZINGARI=जिप्सФорум
RADIO

GIPSY VOICE
radio

ЦЫГАНСКИЕ СТРУНЫ
радио

Понедельник, 26.06.2017, 16:57
Главная
Регистрация
Вход
Цыганский портал!!!приветствую ромалэ!!зачан!!
Приветствую Вас Гость | RSS
[ Новые сообщения · Участники · Правила форума · Поиск · RSS ]
Страница 1 из 11
ЦЫГАНЕ=ROMA=Cingaris=GYPSIES=CIGANOS=吉普賽人=ZINGARI=जिप्सФорум » ЦЫГАНСКИЙ РАЗДЕЛ » ФИЛЬМЫ НА ЦЫГАНСКУЮ ТЕМАТИКУ FULL HD 720P 60 FPS » Сам по себе / Korkoro / Liberte 2009г(русские титры) (Фильмотека Тони Гатлифа)
Сам по себе / Korkoro / Liberte 2009г(русские титры)
murrshakoДата: Суббота, 30.08.2014, 14:05 | Сообщение # 1
Группа: Администраторы
Сообщений: 2044
Репутация: 55
Статус: Offline


Сам по себе / Korkoro / Liberte
Фильмотека Тони Гатлифа(Русские титры))


Страна: Франция
Жанр: исторический, драма
Год выпуска: 2009
Продолжительность: 01:46:3

Перевод: Субтитры (GipsyLilya, Lisochek)
Оригинальная аудиодорожка: французский

Режиссер: Тони Гатлиф / Tony Gatlif
В ролях: Марк Лавуан, Мари-Жозе Кроз, Матьяс Лалиберте, Джеймс Тьерре

Описание: Франция, 1943 год. Застрявший в оккупированной стране маленький табор румынских цыган бродит, скрываясь от немецких солдат. Уже несколько дней их по пятам преследует "призрак"; когда они ловят его, оказывается, что это просто маленький мальчик по имени Клод, который ходит сам по себе с тех пор, как его родители умерли. Один из цыган, Талош, скрипач-виртуоз с разумом десятилетнего ребёнка, даёт Клоду прозвище "Чёроро" (Бедняжка). Они становятся лучшими друзьями. Тем временем табор останавливается в деревне, где всё начальство - ветеринар, по совместительству мэр, и школьная учительница, по совместительству работница мэрии. Учительница помогает сопротивлению, а мэр просто хороший человек. Дальше их судьбы сплетаются. Фильм основан на реальных событиях, и в конце в титрах рассказывается о дальнейшей судьбе прототипов.

Как всегда у Гатлифа, фильм очень красочный и с отличной музыкой.

Доп. информация: Гран-при Монреальского кинофестиваля, 2009

Доступно только для пользователей
 
murrshakoДата: Суббота, 30.08.2014, 14:11 | Сообщение # 2
Группа: Администраторы
Сообщений: 2044
Репутация: 55
Статус: Offline


Сам по себе / Korkoro / Liberte





Сэмпл: http://multi-up.com/431188

Качество видео: DVDRip
Формат видео: AVI

Видео: XviD MPEG-4, 0.16 bit/pixel, 608x320 (1.90:1), 25 fps, 772 kbps
Аудио: MPEG Layer 3, 48 kHz, 132.12 kbps, 2 ch
Формат субтитров: softsub (SRT)
.torrent скачан: 896 раз
Размер: 700 MB

Доступно только для пользователей

 
murrshakoДата: Суббота, 30.08.2014, 14:22 | Сообщение # 3
Группа: Администраторы
Сообщений: 2044
Репутация: 55
Статус: Offline

Gatlif - Korkoro (2009) 60FPS DVD-5.mp4
Format : MPEG-4
Format profile : Base Media
Codec ID : isom
File size : 1.84 GiB
Duration : 1h 51mn
Overall bit rate mode : Variable
Overall bit rate : 2 356 Kbps
Writing application : Lavf54.63.104

Video
ID : 1
Format : AVC
Format/Info : Advanced Video Codec
Format profile : Main@L3.2
Format settings, CABAC : Yes
Format settings, ReFrames : 1 frame
Codec ID : avc1
Codec ID/Info : Advanced Video Coding
Duration : 1h 51mn
Bit rate : 2 206 Kbps
Width : 1 280 pixels
Height : 720 pixels
Display aspect ratio : 16:9
Frame rate mode : Variable
Frame rate : 59.997 fps
Minimum frame rate : 30.000 fps
Maximum frame rate : 60.000 fps
Color space : YUV
Chroma subsampling : 4:2:0
Bit depth : 8 bits
Scan type : Progressive
Bits/(Pixel*Frame) : 0.040
Stream size : 1.70 GiB (93%)
Writing library : x264 core 129
Encoding settings : cabac=1 / ref=1 / deblock=1:0:0 / anal

Audio
ID : 2
Format : AAC
Format/Info : Advanced Audio Codec
Format profile : LC
Codec ID : 40
Duration : 1h 51mn
Duration_FirstFrame : 64ms
Bit rate mode : Variable
Bit rate : 165 Kbps
Maximum bit rate : 192 Kbps
Channel(s) : 2 channels
Channel positions : Front: L R
Sampling rate : 48.0 KHz
Compression mode : Lossy
Stream size : 132 MiB (7%)
ПЕРЕХОД СКАЧАТЬ ФИЛЬМ В КАЧЕСТВЕ 1280-720Р ЗВУК 5.1 60 FPS
Доступно только для пользователей
СКРИНШОТЫ ФИЛЬМА
Прикрепления: 1486221.jpg(571Kb) · 1857146.jpg(482Kb) · 7965784.jpg(441Kb) · 3990037.jpg(666Kb) · 2759340.jpg(428Kb)


Сообщение отредактировал murrshako - Воскресенье, 14.09.2014, 19:28
 
ЦЫГАНЕ=ROMA=Cingaris=GYPSIES=CIGANOS=吉普賽人=ZINGARI=जिप्सФорум » ЦЫГАНСКИЙ РАЗДЕЛ » ФИЛЬМЫ НА ЦЫГАНСКУЮ ТЕМАТИКУ FULL HD 720P 60 FPS » Сам по себе / Korkoro / Liberte 2009г(русские титры) (Фильмотека Тони Гатлифа)
Страница 1 из 11
Поиск:

тест скорости интернета
| Copyright MyCorp © 2017 | |