благодарю!!ромалэ
ЯндексЯндекс. ДеньгиХочу такую же кнопку

http://murrshako-rom.ucoz.ru$724.67$724.67Сколько стоит ваш?

Венго / Vengo(Я иду)2000год(русские титры) - ЦЫГАНЕ=ROMA=Cingaris=GYPSIES=CIGANOS=吉普賽人=ZINGARI=जिप्सФорум
RADIO

GIPSY VOICE
radio

ЦЫГАНСКИЕ СТРУНЫ
радио

Вторник, 30.05.2017, 08:36
Главная
Регистрация
Вход
Цыганский портал!!!приветствую ромалэ!!зачан!!
Приветствую Вас Гость | RSS
[ Новые сообщения · Участники · Правила форума · Поиск · RSS ]
Страница 1 из 11
ЦЫГАНЕ=ROMA=Cingaris=GYPSIES=CIGANOS=吉普賽人=ZINGARI=जिप्सФорум » ЦЫГАНСКИЙ РАЗДЕЛ » ФИЛЬМЫ НА ЦЫГАНСКУЮ ТЕМАТИКУ FULL HD 720P 60 FPS » Венго / Vengo(Я иду)2000год(русские титры) (Фильмотека Тони Гатлифа(Русские титры)))
Венго / Vengo(Я иду)2000год(русские титры)
murrshakoДата: Воскресенье, 07.09.2014, 17:14 | Сообщение # 1
Группа: Администраторы
Сообщений: 2041
Репутация: 55
Статус: Offline


Венго / Vengo 2000
Фильмотека Тони Гатлифа(Русские титры))


Год выпуска: 2000
Страна: Испания, Франция, Германия, Япония
Жанр: драма, мюзикл, фламенко
Продолжительность: 1:25:02
Перевод: Субтитры
Русские субтитры: есть
Режиссер: Тони Гатлиф / Tony Gatlif


Режиссер: Тони Гатлиф / Tony Gatlif
В ролях: Антонио Каналес / Antonio Canales, Орестес Вильясан Родригес / Orestes Villasan Rodriguez, Антонио Дечент / Antonio Dechent, Bobote, Хуан Луис Коррьентес / Juan Luis Corrientes, Фернандо Герреро Реболло / Fernando Guerrero Rebollo, Франциско Чаверо Риос / Francisco Chavero Rios, Хосе Рамирес "Эль Чели" / José Ramírez 'El Cheli', Хуан-Луис Барриос Льоренте / Juan-Luis Barrios Llorente, Хесус Мария Вентура / Jesús María Ventura, Мария Фарако / Maria Faraco, Tomatito, Sheikh Ahmad Al TuniОписание: Наполненная и сочная постановка в стиле фламенко: андалусские ветры в голосах артистов, чарующий огонь в их глазах, цыганская тоска — в душах. Они повествуют о любви и бескомпромиссной страсти к жизни, то настукивая пальцами по стеклу, то нещадно рыдая о том, что на сердце.
Сюжет красиво сдержан в отношении событий. Это всего несколько дней и ночей. Последних.
Фильм для гурманов фламенко и ценителей творчества Тони Гатлифа. (margo-sirin)Доп. информация: За основу взято издание Contactfilm (Голландия) (R2, DVD9, PAL, 6.70 GB).
Русские субтитры добавлены первым потоком, вместо голландских.
Удалены предупреждающие заставки.

СМОТРЕТЬ ФИЛЬМ В КАЧЕСТВЕ FULL HD 720 P русские титры
Доступно только для пользователей
Прикрепления: 2637291.jpg(174Kb)


Сообщение отредактировал murrshako - Воскресенье, 07.09.2014, 17:15
 
murrshakoДата: Воскресенье, 07.09.2014, 17:52 | Сообщение # 2
Группа: Администраторы
Сообщений: 2041
Репутация: 55
Статус: Offline


Доп. информация: За основу взято издание Contactfilm (Голландия) (R2, DVD9, PAL, 6.70 GB).
Русские субтитры добавлены первым потоком, вместо голландских.
Удалены предупреждающие заставки.
Русские субтитры стартуют по умолчанию вместе с фильмом.
При включении трека с реж. комментарием автоматически включаются англ. субтитры.
О других действиях с ДВД-исходником - в спойлере Софт.
***
В доп. материалах (без перевода на русский язык) содержатся:
• удаленные сцены (с англ. субт.);
• комментарий самого Тони Гатлифа (фр. язык и англ. субт.);
• трейлеры этого и еще 4 фильмов Гатлифа;
• фотогалерея;
• видеоклипЗа перевод и субтитры к этому фильму огромное спасибо divxclub и Tushk (раздача рипа).Сэмпл - http://multi-up.com/268057Качество: DVD9
Формат: DVD Video
Видео кодек: MPEG2
Аудио кодек: AC3
Видео: PAL 16:9 (720x576) VBR Auto Letterboxed
Аудио: Espanol (Dolby AC3, 2 ch, 192Kbps), Francais (Dolby AC3, 2 ch, 192Kbps) (реж. комментарий), Espanol (Dolby AC3, 6 ch, 448Kbps), Espanol (DTS, 6 ch, 768Kbps)
Субтитры: Russian, Francais, English, English (реж. комментарий)
Обложка

.torrent скачан: 793 раза
Размер: 6.69 GB

переход скачать фильм с торента
Прикрепления: 8779571.jpg(298Kb)


Сообщение отредактировал murrshako - Воскресенье, 07.09.2014, 17:54
 
murrshakoДата: Воскресенье, 07.09.2014, 18:38 | Сообщение # 3
Группа: Администраторы
Сообщений: 2041
Репутация: 55
Статус: Offline
Complete name : D:\Кассандра 101-150\60FPS\Vengo (2000) 60 FPS(5.1).mp4
Format : MPEG-4
Format profile : Base Media
Codec ID : isom
File size : 1.60 GiB
Duration : 1h 25mn
Overall bit rate mode : Variable
Overall bit rate : 2 688 Kbps
Writing application : Lavf54.63.104

Video
ID : 1
Format : AVC
Format/Info : Advanced Video Codec
Format profile : Main@L3.2
Format settings, CABAC : Yes
Format settings, ReFrames : 1 frame
Codec ID : avc1
Codec ID/Info : Advanced Video Coding
Duration : 1h 25mn
Bit rate : 2 206 Kbps
Width : 1 280 pixels
Height : 720 pixels
Display aspect ratio : 16:9
Frame rate mode : Variable
Frame rate : 59.996 fps
Minimum frame rate : 30.000 fps
Maximum frame rate : 60.000 fps
Color space : YUV
Chroma subsampling : 4:2:0
Bit depth : 8 bits
Scan type : Progressive
Bits/(Pixel*Frame) : 0.040
Stream size : 1.30 GiB (81%)
Writing library : x264 core 129
Encoding settings

Audio
ID : 2
Format : AAC
Format/Info : Advanced Audio Codec
Format profile : LC
Codec ID : 40
Duration : 1h 25mn
Duration_FirstFrame : 64ms
Bit rate mode : Variable
Bit rate : 493 Kbps
Maximum bit rate : 768 Kbps
Channel(s) : 6 channels
Channel positions : Front: L C R, Side: L R, LFE
Sampling rate : 48.0 KHz
Compression mode : Lossy
Stream size : 300 MiB (18%)

СКАЧАТЬ ФИЛЬМ В КАЧЕСТВЕ FULL HD 1280-720P И ЗВУКОМ 5.1
Доступно только для пользователей


Прикрепления: 0746523.jpg(417Kb) · 9625438.jpg(417Kb) · 7690582.jpg(416Kb) · 3374879.jpg(392Kb) · 1800744.jpg(410Kb)


Сообщение отредактировал murrshako - Воскресенье, 14.09.2014, 19:24
 
ЦЫГАНЕ=ROMA=Cingaris=GYPSIES=CIGANOS=吉普賽人=ZINGARI=जिप्सФорум » ЦЫГАНСКИЙ РАЗДЕЛ » ФИЛЬМЫ НА ЦЫГАНСКУЮ ТЕМАТИКУ FULL HD 720P 60 FPS » Венго / Vengo(Я иду)2000год(русские титры) (Фильмотека Тони Гатлифа(Русские титры)))
Страница 1 из 11
Поиск:

тест скорости интернета
| Copyright MyCorp © 2017 | |