благодарю!!ромалэ
ЯндексЯндекс. ДеньгиХочу такую же кнопку

http://murrshako-rom.ucoz.ru$724.67$724.67Сколько стоит ваш?

Ricao – L’âme gitane / Рикао - Душа цыгана - ЦЫГАНЕ=ROMA=Cingaris=GYPSIES=CIGANOS=吉普賽人=ZINGARI=जिप्सФорум
RADIO

GIPSY VOICE
radio

ЦЫГАНСКИЕ СТРУНЫ
радио

Четверг, 17.08.2017, 08:40
Главная
Регистрация
Вход
Цыганский портал!!!приветствую ромалэ!!зачан!!
Приветствую Вас Гость | RSS
[ Новые сообщения · Участники · Правила форума · Поиск · RSS ]
Страница 1 из 11
ЦЫГАНЕ=ROMA=Cingaris=GYPSIES=CIGANOS=吉普賽人=ZINGARI=जिप्सФорум » ЦЫГАНСКИЙ РАЗДЕЛ » ФИЛЬМЫ НА ЦЫГАНСКУЮ ТЕМАТИКУ FULL HD 720P 60 FPS » Ricao – L’âme gitane / Рикао - Душа цыгана (Жанр: Rumba Catalana, Flamenco Cубтитры: русские)
Ricao – L’âme gitane / Рикао - Душа цыгана
murrshakoДата: Понедельник, 08.09.2014, 13:36 | Сообщение # 1
Группа: Администраторы
Сообщений: 2053
Репутация: 55
Статус: Offline


Ricao – L’âme gitane / Рикао - Душа цыгана



Страна: Франция
Жанр: Rumba Catalana, Flamenco
Фильм с участием: Ricao / Рикао, Manitas de Plata / Манитас де Плата, Manolo / Маноло и др. а также цыган Сент-Мари-де-ля-Мер
Продолжительность: 01:14:29
Год выпуска: 2008 г.
Лейбл: DISCADANSE
Перевод: Субтитры [Lisok (франц.) pic; Handino (исп.)]
Cубтитры: русские
Описание:Рикао, - один из самых известных и популярных музыкантов в регионе Камарг, двоюродный внук всемирно известного гитариста Манитас де Плата.
Автор песен, композитор, певец и гитарист, обладающий исключительным талантом и особым стилем исполнения.
Основа его музыки – традиционная для цыган юга Франции каталанская румба, смешанная с другими музыкальными стилями, такими как босса-нова, традиционное фламенко, поп-музыка и др.
В своём репертуаре Рикао также исполняет великолепные сольные гитарные композиции в стиле каталанской румбы и фламенко, песни на испанском и французском языках.
Рикао живёт в Монпелье, но, земля, которой он отдаёт предпочтение - Камарг, там он находит свои корни и там он черпает своё вдохновение. Каждый год, он присутствует на великом цыганском празднике, паломничестве в Сент-Мари-де-ла-Мер, посвященному чествованию покровительницы цыган Святой Саре. В этом смысле, в этом образе жизни, он создает свои композиции, в которых очень удачно сочетаются традиция и ритм, тайна которых известна только самому Рикао. Несмотря на талант, Рикао хранит свою простоту и свой вкус свободы. Именно через его музыку передает свою любовь к Камаргу…
В этом фильме представлены фрагменты концертных выступлений, записи с личных архивов, интервью, видеоклип ¿A dónde vas? и многое другое…Содержание / Треклист:
1. El compás moro
2. Soleares
3. Bulerías
4. Alegrías
5. Sevillanas del adiós
6. Lo que me pasa
7. A ti… a ti
8. Eres
9. Sólo diré
10. ¿A dónde vas?
11. Alegrías
12. Ricao et Manitas de Plata
13. Soñando
14. Amor de una mujer
15. La más bonita
16. Cariño mío
17. La chanson de Manolo
18. ¿A dónde vas?
19. Cartita de amor
20. Sin Dios no hay esperanza
21. Ricao et Ariete
22. Sólo diré
23. La razón
24. Dímelo
25. ¿A dónde vas?
26. C’est la vie
27. Soir gitane
28. Fandango
29. Oulailai
30. Anna-Maria
31. Parle moi d’elle
32. Semos gitanos
33. Chay nay nay
34. De pena voy a mori

СМОТРЕТЬ ФИЛЬМ В КАЧЕСТВЕ 1280-720Р

Доступно только для пользователей


Прикрепления: 3975159.jpg(39Kb)


Сообщение отредактировал murrshako - Понедельник, 08.09.2014, 14:55
 
murrshakoДата: Понедельник, 08.09.2014, 14:09 | Сообщение # 2
Группа: Администраторы
Сообщений: 2053
Репутация: 55
Статус: Offline


Ricao – L’âme gitane / Рикао - Душа цыгана


Доп. информация: Изменения, внесённые в диск:
- добавлены меню выбора сцен, субтитров, информация о Рикао и его дискографии; все меню статичные, озвученные;
- сцены расставлены в соответствие с содержанием, а не через 2 минуты, как у изготовителя;
- видеопоток перекодирован, аудиопоток – без изменений;
- добавлены русские субтитры, перевод диалогов и исполняемых песен;
Разбивка на главы по трекам: есть
Качество : DVD5
Формат: DVD video
Видео кодек: MPEG2
Аудио кодек: MP2
Видео: Mpeg-2, PAL 4:3 (720x576) VBR, 25 fps
Аудио: MPEG-1, 48 kHz, 2 ch

Статус: √ проверено
.torrent скачан: 143 раза
Размер: 4.05 GB
цыгане рома!ТРЕБУЕТСЯ РЕГИСТРАЦИЯ НА ТРЕКЕРЕ ...ИНАЧЕ ВЫКИНЕТ НА ДРУГУЮ СТР
Доступно только для пользователей



Сообщение отредактировал murrshako - Понедельник, 08.09.2014, 14:13
 
murrshakoДата: Понедельник, 08.09.2014, 14:50 | Сообщение # 3
Группа: Администраторы
Сообщений: 2053
Репутация: 55
Статус: Offline
\RICAO - L'ame gitane - 2008(5.1)60FPS.mp4
Format : MPEG-4
Format profile : Base Media
Codec ID : isom
File size : 1.25 GiB
Duration : 1h 14mn
Overall bit rate mode : Variable
Overall bit rate : 2 407 Kbps
Writing application : Lavf54.63.104

Video
ID : 1
Format : AVC
Format/Info : Advanced Video Codec
Format profile : Main@L3.2
Format settings, CABAC : Yes
Format settings, ReFrames : 1 frame
Codec ID : avc1
Codec ID/Info : Advanced Video Coding
Duration : 1h 14mn
Bit rate : 2 206 Kbps
Width : 1 280 pixels
Height : 720 pixels
Display aspect ratio : 16:9
Frame rate mode : Constant
Frame rate : 60.000 fps
Color space : YUV
Chroma subsampling : 4:2:0
Bit depth : 8 bits
Scan type : Progressive
Bits/(Pixel*Frame) : 0.040
Stream size : 1.15 GiB (92%)
Writing library : x264 core 129
Encoding settings
Audio
ID : 2
Format : AAC
Format/Info : Advanced Audio Codec
Format profile : LC
Codec ID : 40
Duration : 1h 14mn
Duration_FirstFrame : 64ms
Bit rate mode : Variable
Bit rate : 187 Kbps
Maximum bit rate : 384 Kbps
Channel(s) : 6 channels
Channel positions : Front: L C R, Side: L R, LFE
Sampling rate : 48.0 KHz
Compression mode : Lossy
Stream size : 99.7 MiB (8%)

ПЕРЕХОД СКАЧАТЬ ФИЛЬМ RICAO - L'ame gitane - 2008 С ОБЛАКА МАИЛ РУ В КАЧЕСТВЕ FULL HD 1280-720P ЗВУК 5.1 60 FPS

Доступно только для пользователей

Прикрепления: 3718563.jpg(560Kb) · 4753170.jpg(675Kb) · 0109079.jpg(558Kb) · 4784230.jpg(513Kb) · 0736938.jpg(611Kb)


Сообщение отредактировал murrshako - Воскресенье, 14.09.2014, 19:15
 
ЦЫГАНЕ=ROMA=Cingaris=GYPSIES=CIGANOS=吉普賽人=ZINGARI=जिप्सФорум » ЦЫГАНСКИЙ РАЗДЕЛ » ФИЛЬМЫ НА ЦЫГАНСКУЮ ТЕМАТИКУ FULL HD 720P 60 FPS » Ricao – L’âme gitane / Рикао - Душа цыгана (Жанр: Rumba Catalana, Flamenco Cубтитры: русские)
Страница 1 из 11
Поиск:

тест скорости интернета
| Copyright MyCorp © 2017 | |