благодарю!!ромалэ
ЯндексЯндекс. ДеньгиХочу такую же кнопку

http://murrshako-rom.ucoz.ru$724.67$724.67Сколько стоит ваш?

Мой остров синий...1972г - ЦЫГАНЕ=ROMA=Cingaris=GYPSIES=CIGANOS=吉普賽人=ZINGARI=जिप्सФорум
RADIO

GIPSY VOICE
radio

ЦЫГАНСКИЕ СТРУНЫ
радио

Вторник, 19.12.2017, 01:23
Главная
Регистрация
Вход
Цыганский портал!!!приветствую ромалэ!!зачан!!
Приветствую Вас Гость | RSS
[ Новые сообщения · Участники · Правила форума · Поиск · RSS ]
Страница 1 из 11
ЦЫГАНЕ=ROMA=Cingaris=GYPSIES=CIGANOS=吉普賽人=ZINGARI=जिप्सФорум » ЦЫГАНСКИЙ РАЗДЕЛ » ФИЛЬМЫ НА ЦЫГАНСКУЮ ТЕМАТИКУ FULL HD 720P 60 FPS » Мой остров синий...1972г (ИЗ КОЛЛЕКЦИИ (ФИЛЬМЫ-СПЕКТАКЛИ ТЕАТРА РОМЭН))
Мой остров синий...1972г
murrshakoДата: Среда, 10.09.2014, 14:48 | Сообщение # 1
Группа: Администраторы
Сообщений: 2053
Репутация: 55
Статус: Offline


Мой остров синий...1972год
Из коллекции фильмов-спектаклей театра ромэн
В ролях: Николай Сличенко, Ляля Боброва, Борис Ташкентский, Земфира Жемчужная (ст.), Яков Яковлев, Василий Туманский, Пётр Модников


(ПРОСЬБА..ЦЫГАНЕ-РОМА!ЕСЛИ ЕСТЬ ИЗ ВАС ЛЮДИ ОБЛАДАЮЩИЕ РЕДКИМИ ЗАПИСЯМИ ФИЛЬМОВ-СПЕКТАКЛЕЙ ЛЕГЕНДАРНОГО НАШЕГО ТЕАТРА РОМЭН...БУДЬТЕ ЛЮБЕЗНЫ ПОДЕЛИТЬСЯ СВОИМ СОКРОВИЩЕМ И ТЕМ САМЫМ СДЕЛАТЬ ДОБРОЕ ДЕЛО ..НЕ ИМЕТЬ ЗАПИСИ ТОЛЬКО В ОДНО ЛИЦО ЦЫГАНСКОЙ НАЦИОНАЛЬНОСТИ А СДЕЛАТЬ ДОСТОЯНИЕМ НАШЕГО ЦЫГАНСКОГО ВИРТУАЛЬНОГО ОБЩЕСТВА)
ВООБЩЕ.РОМАЛЕ ВСЕ ЭТО ПО КРАЙНЕЙ МЕРЕ СТРАННО...ТАК КАК ТЕАТР РОМЕН ВСЕГДА В ТЕМЕ И ВЫПУСКАЕТ ОКОЛО ДЕСЯТКА СПЕКТАКЛЕЙ В СЕЗОН КАЖДЫЙ ГОД....ЧЕМ ТАМ ЦЫГАНСКАЯ ПРОДВИНУТАЯ МОЛОДЕЖЬ ЗАНИМАЕТСЯ?ТОЛЬКО ЗАКОЛАЧИВАНИЕМ ДЕНЕГ-ЛАВЭ?МОЖЕТ УПАДЕТ ПОСЕЩАЕМОСТЬ?РАЗВЕ БОЛЬШОЙ % ЦЫГАН ЖИВЕТ В МОСКВЕ И ИМЕЕТ ВОЗМОЖНОСТЬ ПОСЕТИТЬ ТЕАТР В РЕАЛЕ?НО ВЕДЬ ПРИБЫЛЬ НЕ УПАДЕТ..ЕСЛИ ДАТЬ ВОЗМОЖНОСТЬ ПОСТАНОВКАМ ВЫЙТИ ИЗ ЗА СТЕН ТЕАТРА...СКОРЕЕ НАОБОРОТ ЭТО СЛУЖИЛО БЫ СТИМУЛОМ И ЦЫГАНАМ И НЕ ОЧЕНЬ (ЦЫГАНЕ ПО ДУХУ)КОГДА НИБУДЬ ПОСЕТИТЬ ТЕАТР ......СКОЛЬКО ЦЫГАН ЕЗДИТ В МОСКВУ ЗА ТОВАРОМ СО ВСЕЙ СТРАНЫ И РАЗВЕ МНОГИЕ ЗНАЮТ О ТЕАТРЕ И БЫЛИ ТАМ?А ВОТ ЕСЛИ БЫ БЫЛА ИНФА О ТЕАТРЕ И ВОЗМОЖНОСТЬ ПРЕДВАРИТЕЛЬНОГО ПРОСМОТРА САМОГО МАТЕРИАЛА (СПЕКТАКЛЕЙ)ТО ВСЕ БЫЛО ИНАЧЕ....РАЗВЕ МОЖЕТ ЗАМЕНИТЬ ПРОСМОТР ЗАПИСИ..ТУ АУРУ И ЭНЕРГЕТИКУ КОТОРАЯ ИСХОДИТ В ТЕАТРЕ В РЕАЛЕ?КОНЕЧНО ЖЕ ...НЕТ!!!ТАК ЧТО Я НЕ МОГУ ПОНЯТЬ ПРИЧИН ПОЧЕМУ НЕТ ВОЗМОЖНОСТИ В СВОБОДНОМ ДОСТУПЕ ПОСМОТРЕТЬ ПОСТАНОВКИ ТЕАТРА РОМЕН
СЕЙЧАС ЗА КОПЕЙКИ МОЖНО ПРИОБРЕСТИ ВИДЕОКАМЕРУ HD КАЧЕСТВА И СНИМАТЬ .........ДА ДАЖЕ ОРГАНИЗОВАТЬ ИНТЕРНЕТ ТРАНСЛЯЦИЮ ПО ПЛЕЧУ И МНОГИЕ БЫ БЫЛИ НЕ ПРОТИВ ХОТЬ ЧАСТИЧНО ОКУНУТЬСЯ В АТМОСФЕРУ ТЕАТРА
ХОТЯ БЫ НА ПРЕМЬЕРАХ ПРЯМАЯ ТРАНСЛЯЦИЯ БЫЛА БЫ В ТЕМУ........ГДЕ ВЫ МОЛОДЕЖЬ ЦЫГАНСКОЙ НАЦИОНАЛЬНОСТИ ТЕАТРА РОМЭН?
МОЖНО И НУЖНО ..ЖЕ РАБОТАТЬ НА ПЕРСПЕКТИВУ И НЕ СТОЯТЬ НА МЕСТЕ..ИСКАТЬ НОВЫЕ МЕТОДЫ ПОДАЧИ


Формат: DVDRip, AVI, XviD, MP3

Режиссер: Николай Сличенко, Леонид Пекур

Жанр: фильм-спектакль, драма, комедия, музыкальный фильм, приключения, экранизация

Продолжительность: 01:26:22

Год выпуска: 1972

В ролях: Николай Сличенко, Ляля Боброва, Борис Ташкентский, Земфира Жемчужная (ст.), Яков Яковлев, Василий Туманский, Пётр Модников

Описание: По пьесе итальянских драматургов П.Гаринеи и С.Джованнини "Ты герой, я герой" в постановке Московского цыганского театра "Ромэн".
Предводитель разбойников Ринальдо отнимает деньги и имущество у богачей, помогая беднякам. Однако вскоре он со своими товарищами вынужден будет сделать выбор - служить врагам или встать на сторону повстанцев-гарибальдийцев, которые борются за свободу Италии.

Видео: 640x480 (1.33:1), 25 fps, XviD MPEG-4 ~1067 kbps avg, 0.14 bit/pixel

Аудио: 48 kHz, MPEG Layer 3, 2 ch, ~128.00 kbps avg

СМОТРЕТЬ НА ПЛЕЕРЕ В КОНТАКТЕ В КАЧЕСТВЕ FULL HD 1280-720
Доступно только для пользователей
И СКАЧАТЬ С ОБЛАКА МАИЛ РУ В КАЧЕСТВЕ 1280-720Р И ЗВУК 5.1+ 60 FPS
ВЫ МОЖЕТЕ САМОСТОЯТЕЛЬНО СКАЧАТЬ С ТОРРЕНТА И ПОСМОТРЕТЬ

Доступно только для пользователей
СКРИНШОТЫ ФИЛЬМА

Прикрепления: 6481058.jpg(54Kb) · 8054665.png(608Kb) · 5226809.png(524Kb) · 6939883.png(497Kb)


Сообщение отредактировал murrshako - Пятница, 12.09.2014, 13:31
 
murrshakoДата: Суббота, 13.09.2014, 13:26 | Сообщение # 2
Группа: Администраторы
Сообщений: 2053
Репутация: 55
Статус: Offline
150\60FPS\Moy_ostrov_siniy60 FPS_DVDRip_745mb.mp4
Format : MPEG-4
Format profile : Base Media
Codec ID : isom
File size : 1.46 GiB
Duration : 1h 26mn
Overall bit rate mode : Variable
Overall bit rate : 2 422 Kbps
Writing application : Lavf54.63.104

Video
ID : 1
Format : AVC
Format/Info : Advanced Video Codec
Format profile : Main@L3.2
Format settings, CABAC : Yes
Format settings, ReFrames : 1 frame
Codec ID : avc1
Codec ID/Info : Advanced Video Coding
Duration : 1h 26mn
Bit rate : 2 206 Kbps
Width : 1 280 pixels
Height : 720 pixels
Display aspect ratio : 16:9
Frame rate mode : Constant
Frame rate : 60.000 fps
Color space : YUV
Chroma subsampling : 4:2:0
Bit depth : 8 bits
Scan type : Progressive
Bits/(Pixel*Frame) : 0.040
Stream size : 1.33 GiB (91%)
Writing library : x264 core 129
Encoding settings

Audio
ID : 2
Format : AAC
Format/Info : Advanced Audio Codec
Format profile : LC
Codec ID : 40
Duration : 1h 26mn
Duration_FirstFrame : 64ms
Bit rate mode : Variable
Bit rate : 208 Kbps
Maximum bit rate : 384 Kbps
Channel(s) : 6 channels
Channel positions : Front: L C R, Side: L R, LFE
Sampling rate : 48.0 KHz
Compression mode : Lossy
Stream size : 129 MiB (9%)
ПЕРЕХОД СКАЧАТЬ ФИЛЬМ В КАЧЕСТВЕ FULL HD 1280-720 60 FPS ЗВУК 5.1

Доступно только для пользователей

СКРИНШОТЫ ФИЛЬМА

Прикрепления: 4309143.jpg(444Kb) · 8313692.jpg(497Kb) · 8099453.jpg(413Kb) · 4221240.jpg(500Kb) · 3875032.jpg(477Kb)


Сообщение отредактировал murrshako - Воскресенье, 14.09.2014, 19:08
 
ЦЫГАНЕ=ROMA=Cingaris=GYPSIES=CIGANOS=吉普賽人=ZINGARI=जिप्सФорум » ЦЫГАНСКИЙ РАЗДЕЛ » ФИЛЬМЫ НА ЦЫГАНСКУЮ ТЕМАТИКУ FULL HD 720P 60 FPS » Мой остров синий...1972г (ИЗ КОЛЛЕКЦИИ (ФИЛЬМЫ-СПЕКТАКЛИ ТЕАТРА РОМЭН))
Страница 1 из 11
Поиск:

тест скорости интернета
| Copyright MyCorp © 2017 | |