благодарю!!ромалэ
ЯндексЯндекс. ДеньгиХочу такую же кнопку

http://murrshako-rom.ucoz.ru$724.67$724.67Сколько стоит ваш?

Табор уходит в небо 1975 - Страница 2 - ЦЫГАНЕ=ROMA=Cingaris=GYPSIES=CIGANOS=吉普賽人=ZINGARI=जिप्सФорум
RADIO

GIPSY VOICE
radio

ЦЫГАНСКИЕ СТРУНЫ
радио

Суббота, 22.07.2017, 05:33
Главная
Регистрация
Вход
Цыганский портал!!!приветствую ромалэ!!зачан!!
Приветствую Вас Гость | RSS
[ Новые сообщения · Участники · Правила форума · Поиск · RSS ]
Страница 2 из 2«12
ЦЫГАНЕ=ROMA=Cingaris=GYPSIES=CIGANOS=吉普賽人=ZINGARI=जिप्सФорум » ЦЫГАНСКИЙ РАЗДЕЛ » ФИЛЬМЫ НА ЦЫГАНСКУЮ ТЕМАТИКУ FULL HD 720P 60 FPS » Табор уходит в небо 1975 (+Бонус (фильм о фильме =создание фильма=)
Табор уходит в небо 1975
murrshakoДата: Воскресенье, 18.01.2015, 17:03 | Сообщение # 6
Группа: Администраторы
Сообщений: 2051
Репутация: 55
Статус: Offline
$IMAGE1$


ТАБОР УХОДИТ В НЕБО 1975 В 3D ФОРМАТЕ

ГОРИЗОНТАЛЬНАЯ анаморфная СТЕРЕОПАРА без черных полос во весь экран

ВОСПРОИЗВОДИТСЯ НА ВСТРОЕННОМ ПЛЕРЕ ТЕЛЕВИЗОРА



Табор уходит в небо

picГод выпуска: 1976
Жанр: драма
Продолжительность: 95 минут

Режиссер: Эмиль Лотяну

В ролях: Григоре Григориу, Светлана Тома, Барасби Мулаев, Иван Шкуря, Павел Андрейченко, Серджу Финити, Борислав Брондуков, Ляля Черная, Нелли Волшанинова, Михаил Шишков, Николай Волшанинов, Василий Симчич, Елена Садовская

Описание: Удивительно поэтичный фильм о романтической, прекрасной и трагической любви удалого цыгана Лойко Зобара и гордой красавицы Радды. Красочная лента снята по мотивам ранних рассказов М. Горького.

Лидер проката (1976, 1 место) - 64.9 млн. зрителей. "Золотая раковина" МКФ в Сан-Себастьяне-76. "Лучший фильм 1976 года" на МКФ "Фест" в Белграде-77. Почетный диплом технического конкурса фильмов в рамках конгресса УНИАТЕК в Париже-79; Светлана Тома - лучшая актриса 1976 года по опросу журнала "Советский экран"

Доп. информация: Издание от Руссико. Несколько звуковых дорожек, субтитры. Дполнительные материалы - интервью со Светланой Тома, Евгением Догой и другие. Изображение как минимум не хуже чем у КП. Сравнение изданий на сайте Бартона:
Duration : 15mn 33s
Overall bit rate mode : Variable
Overall bit rate : 8 330 Kbps
Writing application : Lavf54.59.106

Video
ID : 1
Format : AVC
Format/Info : Advanced Video Codec
Format profile : Baseline@L4.0
Format settings, CABAC : No
Format settings, ReFrames : 2 frames
Codec ID : avc1
Codec ID/Info : Advanced Video Coding
Duration : 15mn 33s
Bit rate : 8 000 Kbps
Width : 1 920 pixels
Height : 1 080 pixels
Display aspect ratio : 16:9
Frame rate mode : Constant
Frame rate : 29.970 fps
Color space : YUV
Chroma subsampling : 4:2:0
Bit depth : 8 bits
Scan type : Progressive
Bits/(Pixel*Frame) : 0.129
Stream size : 909 MiB (98%)
Writing library : x264 core 135
Encoding settings : cabac=0 / ref=2 / deblock=1:0:0 /

Audio
ID : 2
Format : AAC
Format/Info : Advanced Audio Codec
Format profile : LC
Codec ID : 40
Duration : 15mn 32s
Duration_LastFrame : -1ms
Bit rate mode : Variable
Bit rate : 152 Kbps
Maximum bit rate : 192 Kbps
Channel(s) : 2 channels
Channel positions : Front: L R
Sampling rate : 44.1 KHz
Compression mode : Lossy
Stream size : 16.9 MiB (2%)

$IMAGE2$



Я ПРИНОШУ СВОИ ИЗВИНЕНИЯ ЗА НЕУДОБСТВО ЧТО ФИЛЬМ РАЗБИТ НА НЕСКОЛЬКО ЧАСТЕЙ И НУЖНО СНАЧАЛА СКАЧАТЬ ВСЕ ЧАСТИ А ПОТОМ ПЕРЕМЕСТИТЬ НА ФЛЕШКУ И СМОТРЕТЬ НА ВСТРОЕННОМ ПЛЕЕРЕ ТЕЛЕВИЗОРА ИЛИ МОЖНО СМОТРЕТЬ НА КОМПЕ =НО ЕСТЬ И + ТАК КАК ЕСЛИ ЗАЛИТЬ НА ТОРРЕНТ ТО ПРИШЛОСЬ ИМЕТЬ ЗАВИСИМОСТЬ ОТ КОЛИЧЕСТВА ЛЮДЕЙ ИМЕЮЩИХ ФИЛЬМ......А В НАШЕМ ВАРИАНТЕ РЕАЛЬНО СКАЧАТЬ НА ПРЕДЕЛЬНОЙ СКОРОСТИ БЕЗ ОЧЕРЕДИ И БЕСПЛАТНО

Доступно только для пользователей

Доступно только для пользователей

Доступно только для пользователей

Доступно только для пользователей

Доступно только для пользователей

Доступно только для пользователей

Доступно только для пользователей


3Д СКРИНШОТЫ






 
ЦЫГАНЕ=ROMA=Cingaris=GYPSIES=CIGANOS=吉普賽人=ZINGARI=जिप्सФорум » ЦЫГАНСКИЙ РАЗДЕЛ » ФИЛЬМЫ НА ЦЫГАНСКУЮ ТЕМАТИКУ FULL HD 720P 60 FPS » Табор уходит в небо 1975 (+Бонус (фильм о фильме =создание фильма=)
Страница 2 из 2«12
Поиск:

тест скорости интернета
| Copyright MyCorp © 2017 | |