благодарю!!ромалэ
ЯндексЯндекс. ДеньгиХочу такую же кнопку

http://murrshako-rom.ucoz.ru$724.67$724.67Сколько стоит ваш?

Когда дорога изгибается: Истории цыганского каравана - ЦЫГАНЕ=ROMA=Cingaris=GYPSIES=CIGANOS=吉普賽人=ZINGARI=जिप्सФорум
RADIO

GIPSY VOICE
radio

ЦЫГАНСКИЕ СТРУНЫ
радио

Пятница, 24.11.2017, 17:55
Главная
Регистрация
Вход
Цыганский портал!!!приветствую ромалэ!!зачан!!
Приветствую Вас Гость | RSS
[ Новые сообщения · Участники · Правила форума · Поиск · RSS ]
Страница 1 из 11
ЦЫГАНЕ=ROMA=Cingaris=GYPSIES=CIGANOS=吉普賽人=ZINGARI=जिप्सФорум » ЦЫГАНСКИЙ РАЗДЕЛ » ФИЛЬМЫ НА ЦЫГАНСКУЮ ТЕМАТИКУ FULL HD 720P 60 FPS » Когда дорога изгибается: Истории цыганского каравана (When the Road Bends: Tales of a Gypsy Caravan (2006))
Когда дорога изгибается: Истории цыганского каравана
murrshakoДата: Среда, 08.10.2014, 13:07 | Сообщение # 1
Группа: Администраторы
Сообщений: 2053
Репутация: 55
Статус: Offline


Когда дорога изгибается: Истории цыганского каравана
When the Road Bends: Tales of a Gypsy Caravan (2006)



Жанры документальный, музыкальный, ... слова
Продолжительность 01:50:00 (110 мин.)
Страна США
Премьера фильма 1 мая 2006 (США)
Выход на DVD 26 августа 2008 (США)


"Вы не можете идти прямо
, когда дорога изгибы ... "
- Romani пословица

Фильм легендарного кинематографиста Альберта Mayslesа, эта динамичный музыкальный документальный фильм рассказывает про пять цыганских коллектива из четырех стран, которых объединяет Вагончик, они принимают участие в шоу по Северной Америке для шестинедельного тура, поразительно что каждый зритель им отвечает. Их музыкальные стили варьируются от фламенко до духового оркестра, Румынской скрипки к индийской народной песни. И с юмором от души в их голосах, они демонстрируют лучших в цыганской культуре и разнообразия ромов в результате взрывной песни и танца. В фильме есть удивительные сцены спектакли и за кадром действие от тура, созданной Этническая музыка Институт, мы обнаруживаем, реальную жизнь этих музыкантов. Мы посещаем Македонию, Румынию, Индию и Испанию, и получаем удовлетворения их семей и посмотреть, что музыка приносит в их жизнь. Рассказы этих персонажей сплетаются между их выступлениями - позволяет нам понять и отобразить цыганскую культуру и предрассудки их общей родословной. " Вагончик "Тур феерия включает выступления от македонской дивы и« Королева цыган "ЭСМА REDZEPOVA, традиционныя Индийская народная труппа MAHARAJA, румынская FANFARE Ciocarlia, скрипка колдовство Румынский группы Taraf DE Haidouks и АНТОНИО EL PIPA FLAMENCO ансамбля. Звуки Рома (цыгане), культура бесконечно неправильно поняли, угнетенные и стигматизации, все чаще слышал на танцполе , и привлекли поклонников как Джонни Депп, который в фильме. Журнал Time объявляет, "Цыганская музыка избежать ее" гетто "в Румынии, чтобы стать мировой сенсацией." кинофестивале Tribeca Стивен Снайдер пишет: «Учитывая чрезвычайный доступ к всемирно известной по несколько аутсайдеров, Dellal в полной мере путем налаживания отношений с ключевые игроки сообщества, в том числе скрипача-виртуоза, который также должен просить изменения для того, чтобы держать свою семью на плаву ". Этот фильм представляет собой торжество, которое даст вам , прилив адреналина и свою душу поднятыми по славной путешествие, которое является Вагончик. " Жасмин Dellal это эпическая рассказчица, которая использует время и музыку как два добавленных размеров для развертки ее богатой кинематографической саги. Этот фильм рассказывает историю народа, разделенных всяческим злом в истории, и пока держится вместе и питающихся с помощью их музыки. Это документальный самого высокого порядка, глубокый и настойчивый труд, который управляет создать интригу, в то время как звучание глубокие глубины поэзии. Я плакала, и я улыбалась , одновременно иногда. Фильм является отличным послом для людей цыганских и для их музыки - Андрей Кодреску , NPR комментатор, писатель



Доступно только для пользователей

Прикрепления: 8820589.jpg(24Kb) · 0896790.jpg(5Kb) · 2339899.jpg(286Kb)


Сообщение отредактировал murrshako - Среда, 08.10.2014, 13:56
 
murrshakoДата: Среда, 08.10.2014, 15:40 | Сообщение # 2
Группа: Администраторы
Сообщений: 2053
Репутация: 55
Статус: Offline


СМОТРЕТЬ 1-Ю ЧАСТЬ ФИЛЬМА В КАЧЕСТВЕ 720 ВО ВЕСЬ ЭКРАН





СМОТРЕТЬ 2-Ю ЧАСТЬ ФИЛЬМА В КАЧЕСТВЕ 720 ВО ВЕСЬ ЭКРАН

Доступно только для пользователей

Прикрепления: 1191814.jpg(310Kb) · 6104654.jpg(44Kb)


Сообщение отредактировал murrshako - Среда, 08.10.2014, 22:03
 
murrshakoДата: Четверг, 09.10.2014, 12:27 | Сообщение # 3
Группа: Администраторы
Сообщений: 2053
Репутация: 55
Статус: Offline
Complete name : D:\60 КАДРОВ\Истории цыганского каравана 60FPS MP4 1-я часть.m4v
Format : MPEG-4
Codec ID : M4V
File size : 964 MiB
Duration : 56mn 4s
Overall bit rate mode : Variable
Overall bit rate : 2 405 Kbps
Encoded date : UTC 2014-10-06 18:44:05
Tagged date : UTC 2014-10-06 18:44:05

Video
ID : 1
Format : AVC
Format/Info : Advanced Video Codec
Format profile : Main@L3.2
Format settings, CABAC : Yes
Format settings, ReFrames : 1 frame
Codec ID : avc1
Codec ID/Info : Advanced Video Coding
Duration : 56mn 4s
Bit rate : 2 109 Kbps
Nominal bit rate : 4 644 Kbps
Maximum bit rate : 4 204 Kbps
Width : 1 280 pixels
Height : 720 pixels
Display aspect ratio : 16:9
Frame rate mode : Constant
Frame rate : 60.000 fps
Color space : YUV
Chroma subsampling : 4:2:0
Bit depth : 8 bits
Scan type : Progressive
Bits/(Pixel*Frame) : 0.038
Stream size : 846 MiB (88%)
Writing library : x264 core 129
Encoding settings

Tagged date : UTC 2014-10-06 18:45:51
Material_Duration : 3344017
Material_StreamSize : 928184737
Material_FrameCount : 200641

Audio
ID : 2
Format : AAC
Format/Info : Advanced Audio Codec
Format profile : LC
Codec ID : 40
Duration : 55mn 44s
Bit rate mode : Variable
Bit rate : 192 Kbps
Nominal bit rate : 93.1 Kbps
Maximum bit rate : 102 Kbps
Channel(s) : 6 channels
Channel positions : Front: L C R, Side: L R, LFE
Sampling rate : 48.0 KHz
Compression mode : Lossy
Stream size : 77.8 MiB (8%)
Encoded date : UTC 2014-10-06 18:44:05
Tagged date : UTC 2014-10-06 18:45:51

ПЕРЕХОД СКАЧАТЬ 1 ЧАСТЬ ФИЛЬМА В КАЧЕСТВЕ 1280-720 60 FPS ЗВУК 5.1 ВО ВЕСЬ ЭКРАН

НАЙТИ ФАЙЛ С НАЗВАНИЕМ =ИСТОРИИ ЦЫГАНСКОГО КАРАВАНА 60 FPS =

Доступно только для пользователей



СКРИНШОТЫ ФИЛЬМА








Прикрепления: 3614490.jpg(185Kb) · 7426468.jpg(352Kb) · 0814210.jpg(579Kb) · 8245678.jpg(544Kb) · 7132713.jpg(504Kb)


Сообщение отредактировал murrshako - Четверг, 09.10.2014, 12:56
 
murrshakoДата: Четверг, 09.10.2014, 13:04 | Сообщение # 4
Группа: Администраторы
Сообщений: 2053
Репутация: 55
Статус: Offline
General
Complete name : D:\60 КАДРОВ\Истории цыганского каравана 60FPS MP4 2-я часть.m4v
Format : MPEG-4
Codec ID : M4V
File size : 972 MiB
Duration : 56mn 34s
Overall bit rate mode : Variable
Overall bit rate : 2 402 Kbps
Encoded date : UTC 2014-10-06 18:48:44
Tagged date : UTC 2014-10-06 18:48:44

Video
ID : 1
Format : AVC
Format/Info : Advanced Video Codec
Format profile : Main@L3.2
Format settings, CABAC : Yes
Format settings, ReFrames : 1 frame
Codec ID : avc1
Codec ID/Info : Advanced Video Coding
Duration : 56mn 34s
Bit rate : 2 106 Kbps
Nominal bit rate : 4 644 Kbps
Maximum bit rate : 4 204 Kbps
Width : 1 280 pixels
Height : 720 pixels
Display aspect ratio : 16:9
Frame rate mode : Constant
Frame rate : 60.000 fps
Color space : YUV
Chroma subsampling : 4:2:0
Bit depth : 8 bits
Scan type : Progressive
Bits/(Pixel*Frame) : 0.038
Stream size : 852 MiB (88%)
Writing library : x264 core 129
Encoding settings : cabac=1 / ref=1 / deblock=1:0:0 / analys

Tagged date : UTC 2014-10-06 18:51:25
Material_Duration : 3373784
Material_StreamSize : 935210166
Material_FrameCount : 202427

Audio
ID : 2
Format : AAC
Format/Info : Advanced Audio Codec
Format profile : LC
Codec ID : 40
Duration : 56mn 13s
Bit rate mode : Variable
Bit rate : 192 Kbps
Nominal bit rate : 93.1 Kbps
Maximum bit rate : 102 Kbps
Channel(s) : 6 channels
Channel positions : Front: L C R, Side: L R, LFE
Sampling rate : 48.0 KHz
Compression mode : Lossy
Stream size : 78.6 MiB (8%)
Encoded date : UTC 2014-10-06 18:48:44
Tagged date : UTC 2014-10-06 18:51:25

ПЕРЕХОД СКАЧАТЬ 2 ЧАСТЬ ФИЛЬМА В КАЧЕСТВЕ 1280-720 60 FPS ЗВУК 5.1 ВО ВЕСЬ ЭКРАН

НАЙТИ ФАЙЛ С НАЗВАНИЕМ =ИСТОРИИ ЦЫГАНСКОГО КАРАВАНА 60 FPS =


Доступно только для пользователей

СКРИНШОТЫ
ОТКРЫТЬ

Прикрепления: 6755237.jpg(398Kb) · 3780598.jpg(337Kb) · 7767065.jpg(492Kb) · 8321843.jpg(387Kb) · 3114852.jpg(638Kb)


Сообщение отредактировал murrshako - Четверг, 09.10.2014, 13:33
 
ЦЫГАНЕ=ROMA=Cingaris=GYPSIES=CIGANOS=吉普賽人=ZINGARI=जिप्सФорум » ЦЫГАНСКИЙ РАЗДЕЛ » ФИЛЬМЫ НА ЦЫГАНСКУЮ ТЕМАТИКУ FULL HD 720P 60 FPS » Когда дорога изгибается: Истории цыганского каравана (When the Road Bends: Tales of a Gypsy Caravan (2006))
Страница 1 из 11
Поиск:

тест скорости интернета
| Copyright MyCorp © 2017 | |