благодарю!!ромалэ
ЯндексЯндекс. ДеньгиХочу такую же кнопку

http://murrshako-rom.ucoz.ru$724.67$724.67Сколько стоит ваш?

ЦЫГАНСКОЕ ВОЛШЕБСТВО/GYPSY MAGIC 1987 - ЦЫГАНЕ=ROMA=Cingaris=GYPSIES=CIGANOS=吉普賽人=ZINGARI=जिप्सФорум
RADIO

GIPSY VOICE
radio

ЦЫГАНСКИЕ СТРУНЫ
радио

Понедельник, 20.11.2017, 14:54
Главная
Регистрация
Вход
Цыганский портал!!!приветствую ромалэ!!зачан!!
Приветствую Вас Гость | RSS
[ Новые сообщения · Участники · Правила форума · Поиск · RSS ]
Страница 1 из 11
ЦЫГАНЕ=ROMA=Cingaris=GYPSIES=CIGANOS=吉普賽人=ZINGARI=जिप्सФорум » ЦЫГАНСКИЙ РАЗДЕЛ » ФИЛЬМЫ НА ЦЫГАНСКУЮ ТЕМАТИКУ FULL HD 720P 60 FPS » ЦЫГАНСКОЕ ВОЛШЕБСТВО/GYPSY MAGIC 1987 (КОМЕДИЯ -ДРАМА-МАКЕДОНИЯ(перевод Македония-Романи))
ЦЫГАНСКОЕ ВОЛШЕБСТВО/GYPSY MAGIC 1987
murrshakoДата: Воскресенье, 26.10.2014, 19:00 | Сообщение # 1
Группа: Администраторы
Сообщений: 2053
Репутация: 55
Статус: Offline


Цыганское волшебство (1997)
Gypsy Magic126 мин. (02:06) - Комедия, Драма


Страна: Македония
Режиссёр: Stole Popov
Сценарий: Vladimir Blazevski
Продюсер: Goran Tozija, Alex Nikolic, Jordanco Cevrevski, Игорь Нола
Оператор: Apostol Trpevski
Композитор: Vlatko Stefanovski

В главных ролях

Бекир Аднан
Петре Арсовски
Сабан Байрамович
Салетин Билал
Джорданко Чевревски
Goran Dodevski
Асо Дуковски
Ljupka Dzundeva
Fehmi Grubi
Катина Иванова


Език: Macedonian / Romany

Субтитри: Не се намират / поне за сега / вградени сръбски

Награди и номинации:

1997 - Won - Montpellier Mediterranean Film Festival Bolden Antigone - Stole Popov

1997 - Nominated - Montreal World Film Festival Grand Prix des Ameriques - Stole Popov

1997 - Nominated - Moscow International Film Festival Golden St. George - Stole Popov

Отзывы пользователей

отличная мелодрама выявления неучтенных культурных связей
8 апреля 2004 | По (maity@uiuc.edu) (Урбана Шампейн) - Показать все мои отзывы
Я видел фильм давно, после моего интереса к цыганской культуре, музыке и истории были вызвали Кустурицы "Время цыган". Этот фильм, по сравнению, практически ничего не известно. Однако ей удается контекст определенные темы в жизни балканских цыган. Установите в лагере для беженцев в ведении ООН во время Балканской войны, это история о ПЗУ патриарха, который является хорошим даром пьяницы, с одной профессии ... он постоянно мечтает о возвращении «домой» в Индию (откуда все цыгане легендарный чтобы начали их кросс-континентальный одиссею), чтобы избежать, раз и навсегда, преследование цыган со стороны местного населения. Он дружит с площади командира ООН, индийский, с надеждой, что дружба будет служить паспортом для него и его семьи в Индию. В процессе, он даже допускает флирт дочери с командиром ООН, так как ему обещали помощь в эмиграции по парню. В конечном счете, это заканчивается в горе, в качестве командира ООН и его батальон индийских войск внезапно переехал, и он уходит, даже не попрощавшись, оставив дочь беременная в процессе. Это пронзительная повесть, но то, что было самым интересным для меня было изображение на страстное желание из цыган для индийской культуры, в виде Болливуда кино (есть сцена, где вся колония посещает открытый показ воздуха "Бобби" на VHS проецируется на белый лист. Даже когда я узнал сцену как изображение проекции недостижимому надежде, вид материала, который держит у собирается ... Я думал ... если бы они только знали, сколько более нетерпимым Индийская общество было к их маргинализации! Это недостатки еще замечательный маленький фильм и не должен быть пропущен никем с какой-либо интерес в цыганской жизни и культуры, если не за что, просто потому, что он изображает другую сторону медали ... в сторону которая создателей мифов Гатлиф и Кустурица не решают!

Доступно только для пользователей

СМОТРЕТЬ ФИЛЬМ 1-Я ЧАСТЬ ФИЛЬМА


Доступно только для пользователей

СМОТРЕТЬ 2 ЧАСТЬ ФИЛЬМА
Доступно только для пользователей

АЛЬТЕРНАТИВА БОЛЕЕ ЛУЧШЕГО КАЧЕСТВА ВО ВЕСЬ ЭКРАН 1 И 2 ЧАСТИ



Сообщение отредактировал murrshako - Суббота, 22.11.2014, 14:02
 
murrshakoДата: Среда, 05.11.2014, 14:36 | Сообщение # 2
Группа: Администраторы
Сообщений: 2053
Репутация: 55
Статус: Offline


Gypsy.Magic.1997.DVDRip.DivX.avi

General
Complete name : D:\Gypsy.Magic.1997.DVDRip.DivX.MKD.SRP.Subbed\Gypsy.Magic.1997.DVDRip.DivX.avi
Format : AVI
Format/Info : Audio Video Interleave
File size : 697 MiB
Duration : 2h 5mn
Overall bit rate mode : Variable
Overall bit rate : 775 Kbps
Writing application : Nandub v1.0rc2
Writing library : Nandub build 1853/release

Video
ID : 0
Format : MPEG-4 Visual
Codec ID : DIV3
Codec ID/Hint : DivX 3 Low
Duration : 2h 5mn
Bit rate : 714 Kbps
Width : 512 pixels
Height : 344 pixels
Display aspect ratio : 3:2
Frame rate : 25.000 fps
Color space : YUV
Chroma subsampling : 4:2:0
Bit depth : 8 bits
Compression mode : Lossy
Bits/(Pixel*Frame) : 0.162
Stream size : 643 MiB (92%)

Audio
ID : 1
Format : MPEG Audio
Format version : Version 1
Format profile : Layer 3
Mode : Joint stereo
Mode extension : MS Stereo
Codec ID : 55
Codec ID/Hint : MP3
Duration : 2h 5mn
Bit rate mode : Variable
Bit rate : 48.0 Kbps
Channel(s) : 2 channels
Sampling rate : 44.1 KHz
Compression mode : Lossy
Stream size : 43.6 MiB (6%)
Alignment : Aligned on interleaves
Interleave, duration : 26 ms (0.65 video frame)
Interleave, preload duration : 541 ms

ПЕРЕХОД СКАЧАТЬ ФИЛЬМ В 700МБ

Доступно только для пользователей




Прикрепления: 3991923.jpg(52Kb)


Сообщение отредактировал murrshako - Суббота, 08.11.2014, 16:08
 
murrshakoДата: Среда, 05.11.2014, 14:39 | Сообщение # 3
Группа: Администраторы
Сообщений: 2053
Репутация: 55
Статус: Offline
Format : MPEG-4
Format profile : Base Media
Codec ID : isom
File size : 2.08 GiB
Duration : 2h 5mn
Overall bit rate mode : Variable
Overall bit rate : 2 368 Kbps
Writing application : Lavf54.63.104

Video
ID : 1
Format : AVC
Format/Info : Advanced Video Codec
Format profile : Main@L3.2
Format settings, CABAC : Yes
Format settings, ReFrames : 1 frame
Codec ID : avc1
Codec ID/Info : Advanced Video Coding
Duration : 2h 5mn
Bit rate : 2 206 Kbps
Width : 1 280 pixels
Height : 720 pixels
Display aspect ratio : 16:9
Frame rate mode : Constant
Frame rate : 60.000 fps
Color space : YUV
Chroma subsampling : 4:2:0
Bit depth : 8 bits
Scan type : Progressive
Bits/(Pixel*Frame) : 0.040
Stream size : 1.94 GiB (93%)
Writing library : x264 core 129
Encoding settings

Audio
ID : 2
Format : AAC
Format/Info : Advanced Audio Codec
Format profile : LC
Codec ID : 40
Duration : 2h 5mn
Duration_FirstFrame : 70ms
Bit rate mode : Variable
Bit rate : 147 Kbps
Maximum bit rate : 353 Kbps
Channel(s) : 6 channels
Channel positions : Front: L C R, Side: L R, LFE
Sampling rate : 44.1 KHz
Compression mode : Lossy
Stream size : 132 MiB (6%)

ПЕРЕХОД СКАЧАТЬ 1 ЧАСТЬ ФИЛЬМА

Доступно только для пользователей

ПЕРЕХОД СКАЧАТЬ 2 ЧАСТЬ ФИЛЬМА

Доступно только для пользователей

СКРИНШОТЫ ФИЛЬМА








Прикрепления: 4549929.jpg(528Kb) · 1064516.jpg(470Kb) · 4340239.jpg(455Kb) · 6583051.jpg(568Kb)


Сообщение отредактировал murrshako - Суббота, 08.11.2014, 16:04
 
ЦЫГАНЕ=ROMA=Cingaris=GYPSIES=CIGANOS=吉普賽人=ZINGARI=जिप्सФорум » ЦЫГАНСКИЙ РАЗДЕЛ » ФИЛЬМЫ НА ЦЫГАНСКУЮ ТЕМАТИКУ FULL HD 720P 60 FPS » ЦЫГАНСКОЕ ВОЛШЕБСТВО/GYPSY MAGIC 1987 (КОМЕДИЯ -ДРАМА-МАКЕДОНИЯ(перевод Македония-Романи))
Страница 1 из 11
Поиск:

тест скорости интернета
| Copyright MyCorp © 2017 | |