благодарю!!ромалэ
ЯндексЯндекс. ДеньгиХочу такую же кнопку

http://murrshako-rom.ucoz.ru$724.67$724.67Сколько стоит ваш?

Пусть говорят: Мама для Мисс Вселенная. Эфир от 05.11.2014 - ЦЫГАНЕ=ROMA=Cingaris=GYPSIES=CIGANOS=吉普賽人=ZINGARI=जिप्सФорум
RADIO

GIPSY VOICE
radio

ЦЫГАНСКИЕ СТРУНЫ
радио

Четверг, 21.09.2017, 15:09
Главная
Регистрация
Вход
Цыганский портал!!!приветствую ромалэ!!зачан!!
Приветствую Вас Гость | RSS
[ Новые сообщения · Участники · Правила форума · Поиск · RSS ]
Страница 1 из 11
ЦЫГАНЕ=ROMA=Cingaris=GYPSIES=CIGANOS=吉普賽人=ZINGARI=जिप्सФорум » ЦЫГАНСКИЙ РАЗДЕЛ » ФИЛЬМЫ НА ЦЫГАНСКУЮ ТЕМАТИКУ FULL HD 720P 60 FPS » Пусть говорят: Мама для Мисс Вселенная. Эфир от 05.11.2014 (ТВ ШОУ НА 1-М ФЕДЕРАЛЬНОМ КАНАЛЕ (ПРО-ВО РОССИЯ))
Пусть говорят: Мама для Мисс Вселенная. Эфир от 05.11.2014
murrshakoДата: Суббота, 22.11.2014, 15:28 | Сообщение # 1
Группа: Администраторы
Сообщений: 2053
Репутация: 55
Статус: Offline

Пусть говорят: Мама для Мисс Вселенная. Эфир от 05.11.2014


В 2012 году была признана одной из самых красивых девочек России на конкурсе под названием «Детская супермодель России» Лиза Вербицкая, проживающая в Ярославле, ей было тогда 8 лет. Но не всем известно, что в возрасте одного года эта девочка обнаружена была в пустой квартире, ее нашли еле живой. Были у малышки переломы, она была истощена. Врачи думали, что девочка не выживет.

Увидела в подобном состоянии малышку женщина, проживающая в Ярославле, она — портниха. Инна решила себе забрать эту смуглую девочку, став ее приемной матерью. Сегодня красивая девочка превосходно двигается по подиуму, но она даже стоять не могла, когда ей было два года. Но женщина девочку смогла выходить.

Приемная мама не представляет, как малышка оказалась в таком состоянии, что произошло в той квартире, почему она была одна с переломами. Неизвестно также, какая кровь в венах мулатки. Сегодня приемная мать девочки получит на все свои вопросы ответы. Нашлась родная мать девочки, прошло 9 лет с тех пор, как она ее бросила.

СМОТРЕТЬ В КАЧЕСТВЕ 1280-720Р А ЗАТЕМ И ВОЗМОЖНОСТЬ СКАЧАТЬ В КАЧЕСТВЕ СО ЗВУКОМ 5.1 60 FPS



ПОКА В СРЕДНЕМ КАЧЕСТВЕ




Прикрепления: 4574451.jpg(3Kb) · 8757795.jpg(166Kb) · 8441830.jpg(241Kb) · 9022545.jpg(140Kb) · 6276722.jpg(120Kb)


Сообщение отредактировал murrshako - Понедельник, 24.11.2014, 13:10
 
murrshakoДата: Суббота, 22.11.2014, 15:32 | Сообщение # 2
Группа: Администраторы
Сообщений: 2053
Репутация: 55
Статус: Offline


КОММЕНТАРИИ

Рита Белова
Люди! Это же цыгане!!!!! Этим всё сказано! Эту мамашку никто не перекричит и ничего не докажет! И от этой девочки они теперь не отстанут! Это же цыгане! Бедная Лиза и бедная её мама, кторая приёмная!!!!!!!! Лучше бы они не искали концов!
...........................................................................
Сергей Плеханов
Очень трогательная история, Лиза молодец , что восприняла появление своей биологической матери достаточно спокойно и не показала отвращения. Я уверен что в дальнейшем она будет общаться со своими новоиспеченными родственниками, но все равно ничто наверно не повлияет уже на ее отношение к маме, которая ее воспитала, и всю ее жизнь была всегда рядом. Остается ей пожелать только счастья, и творческого успеха!))
.............................................................................
Zita Nataniel
V ciganskah semjah eta norma izbivat detei...
..............................................................................
Witch Bitch
devo4ka NE pohoza na ciganku,kstati))A mamasha bila doma,skazala ze...Tajna pokritaja mrakom tam
...............................................................
Наталья Лежнина
Пусть у этой девочки будет две мамы,и эта будущая звездочка всех своих братьев и сестер не оставит и полюбит свою кровную родню.Пусть в этой семье большой будет мир и благоденствие,а брошенная девочка простит свою мать цыганку,ведь дети умнее нас.
..........................................
Светлана Буркова
Не могу понять и в голове не укладываются две мысли - где была мамаша,когда дитё забрали в таком состоянии и почему никто за это не был наказан?Ребёнка оставили умирать и никто в этом не виноват. А по девочке сразу было видно ещё до появления мамаши биологической в студии,что она цыганочка. Зря эта курва появилась в жизни девочки спустя столько лет и по мне так и эти сёстры и братья на хрен не нужны.
...........................................

 
murrshakoДата: Понедельник, 24.11.2014, 13:50 | Сообщение # 3
Группа: Администраторы
Сообщений: 2053
Репутация: 55
Статус: Offline
govorjat mama dlja miss vselennoy.m4v
Format : MPEG-4
Codec ID : M4V
File size : 902 MiB
Duration : 52mn 42s
Overall bit rate mode : Variable
Overall bit rate : 2 393 Kbps
Encoded date : UTC 2014-11-22 04:40:58
Tagged date : UTC 2014-11-22 04:40:58

Video
ID : 1
Format : AVC
Format/Info : Advanced Video Codec
Format profile : Main@L3.2
Format settings, CABAC : Yes
Format settings, ReFrames : 1 frame
Codec ID : avc1
Codec ID/Info : Advanced Video Coding
Duration : 52mn 42s
Bit rate : 2 119 Kbps
Nominal bit rate : 4 644 Kbps
Maximum bit rate : 2 655 Kbps
Width : 1 280 pixels
Height : 720 pixels
Display aspect ratio : 16:9
Frame rate mode : Constant
Frame rate : 60.000 fps
Color space : YUV
Chroma subsampling : 4:2:0
Bit depth : 8 bits
Scan type : Progressive
Bits/(Pixel*Frame) : 0.038
Stream size : 799 MiB (89%)
Writing libra

Encoded date : UTC 2014-10-07 11:45:38
Tagged date : UTC 2014-11-22 04:45:38
Material_Duration : 3138183
Material_StreamSize : 877896786
Material_FrameCount : 188291

Audio
ID : 2
Format : AAC
Format/Info : Advanced Audio Codec
Format profile : LC
Codec ID : 40
Duration : 52mn 18s
Bit rate mode : Variable
Bit rate : 170 Kbps
Nominal bit rate : 77.0 Kbps
Maximum bit rate : 107 Kbps
Channel(s) : 6 channels
Channel positions : Front: L C R, Side: L R, LFE
Sampling rate : 48.0 KHz
Compression mode : Lossy
Stream size : 63.7 MiB (7%)
Encoded date : UTC 2014-11-22 04:40:58
Tagged date : UTC 2014-11-22 04:45:38

СКАЧАТЬ ФИЛЬМ В КАЧЕСТВЕ 1280-720Р СО ЗВУКОМ 5.1 И 60 FPS ВО ВЕСЬ ЭКРАН .БЕЗ ЧЕРНЫХ ПОЛОС

Доступно только для пользователей



СКРИНШОТЫ






СКОРО СКАЧАТЬ СО ЗВУКОМ 5.1 И 60 КАДРОВ В СЕК

Прикрепления: 7954769.jpg(378Kb) · 1188115.jpg(541Kb) · 6973952.jpg(516Kb) · 5482847.jpg(428Kb) · 2990593.jpg(582Kb)


Сообщение отредактировал murrshako - Вторник, 30.12.2014, 16:32
 
ЦЫГАНЕ=ROMA=Cingaris=GYPSIES=CIGANOS=吉普賽人=ZINGARI=जिप्सФорум » ЦЫГАНСКИЙ РАЗДЕЛ » ФИЛЬМЫ НА ЦЫГАНСКУЮ ТЕМАТИКУ FULL HD 720P 60 FPS » Пусть говорят: Мама для Мисс Вселенная. Эфир от 05.11.2014 (ТВ ШОУ НА 1-М ФЕДЕРАЛЬНОМ КАНАЛЕ (ПРО-ВО РОССИЯ))
Страница 1 из 11
Поиск:

тест скорости интернета
| Copyright MyCorp © 2017 | |