благодарю!!ромалэ
ЯндексЯндекс. ДеньгиХочу такую же кнопку

http://murrshako-rom.ucoz.ru$724.67$724.67Сколько стоит ваш?

Колдовская любовь • El Amor brujo 1986 - ЦЫГАНЕ=ROMA=Cingaris=GYPSIES=CIGANOS=吉普賽人=ZINGARI=जिप्सФорум
RADIO

GIPSY VOICE
radio

ЦЫГАНСКИЕ СТРУНЫ
радио

Пятница, 28.07.2017, 07:49
Главная
Регистрация
Вход
Цыганский портал!!!приветствую ромалэ!!зачан!!
Приветствую Вас Гость | RSS
[ Новые сообщения · Участники · Правила форума · Поиск · RSS ]
Страница 1 из 11
ЦЫГАНЕ=ROMA=Cingaris=GYPSIES=CIGANOS=吉普賽人=ZINGARI=जिप्सФорум » ЦЫГАНСКИЙ РАЗДЕЛ » ФИЛЬМЫ НА ЦЫГАНСКУЮ ТЕМАТИКУ FULL HD 720P 60 FPS » Колдовская любовь • El Amor brujo 1986 (Страна: ИспанияЖанр: драма, музыка, фламенко)
Колдовская любовь • El Amor brujo 1986
murrshakoДата: Понедельник, 15.12.2014, 17:19 | Сообщение # 1
Группа: Администраторы
Сообщений: 2051
Репутация: 55
Статус: Offline


Колдовская любовь / El Amor brujo / A Love Bewitched (Карлос Саура / Carlos Saura) [1986, Испания, драма, музыка, фламенко


Колдовская любовь • El Amor brujo

Страна: Испания
Студия: Emiliano Piedra
Жанр: драма, музыка, фламенко
Год выпуска: 1986
Продолжительность: 1°43'42"
Год выпуска диска: 2007
Производитель: The Criterion pic Eclipse Series 6

Перевод #1: Профессиональный (полное дублирование) (СССР)

Режиссёр: Карлос Саура / Carlos Saura
Авторы сценария: Карлос Саура / Carlos Saura, Антонио Гадес / Antonio Gades (по мотивамм балета с пением Мануеля де Фалья / Manuel de Falla, автор либретто Грегорио Мартинес Сьерра / Gregorio Martínez Sierra)
Оператор: Тео Эскамилья / Teo Escamilla
Хореограф: Антонио Гадес / Antonio Gades

Описание: Третья совместная работа испанского режиссера (до этого были сняты "Кровавая свадьба" и "Кармен")и хореографа Гадеса, в которой использована опера Мануэля Де Фальи. Заняты в картине те же актеры, что и в "Кармен", только Дель Соль уступила главную роль Кристине Ойос, что, по мнению критиков, пошло на пользу.
Снят фильм в экзотической, яркой, многоцветной манере, в стильной студии Мадрида. Хименес и Ойос - цыгане, помолвленные подвыпившими отцами еще в раннем детстве. В начале фильма зритель увидит великолепно поставленную свадьбу, но вскоре узнает, что у каждого из брачующихся есть свой любовный интерес на стороне. Гадес обожает Ойос на расстоянии, а Хименес состоит в любовной связи с красавицей Дель Соль. Фильм не пользовался успехом "Кармен", возможно, из-за того, что и критики, и кинозрители лучше знают Бизе, чем Де Фальи. В целом "Колдовская любовь" более стилизована, чем предшествующие ленты, выделяется интересной операторской работой, а хореография, по мнению энтузиастов, даже выиграла благодаря Ойос.

Описание: Действие происходит в небольшой цыганской деревне. Родители юных Канделы и Хосе принимают решение о будущей свадьбе своих детей-подростков. Прошли годы. Свадьба Канделы и Хосе состоялась, но у каждого из супругов свои возлюбленные. В уличной драке погибает Хосе, защищая свою возлюбленную Лусию. Заколдованная Канделла несколько лет подряд каждую ночь приходит к месту его гибели, танцует с призраком Хосе. Ситуацию разрешает влюбленный в Канделу Кармело. Финальные кадры фильма — зажигательное фламенко в исполнении двух любящих пар: Кандела с Кармело и Лусия с Хосе.
murrshako37
СМОТРЕТЬ В КАЧЕСТВЕ 1280-720 ВО ВЕСЬ ЭКРАН БЕЗ ЧЕРНЫХ ПОЛОС

Доступно только для пользователей

Прикрепления: 5877710.jpg(103Kb) · 0329121.jpg(41Kb)


Сообщение отредактировал murrshako - Понедельник, 29.12.2014, 13:38
 
murrshakoДата: Вторник, 16.12.2014, 16:26 | Сообщение # 2
Группа: Администраторы
Сообщений: 2051
Репутация: 55
Статус: Offline



MPEG-4
Format profile : Base Media
Codec ID : isom
File size : 1.73 GiB
Duration : 1h 44mn
Overall bit rate mode : Variable
Overall bit rate : 2 379 Kbps
Encoded date : UTC 2014-10-07 11:45:38
Tagged date : UTC 2014-10-07 11:45:38
Writing application : Lavf54.63.104

Video
ID : 1
Format : AVC
Format/Info : Advanced Video Codec
Format profile : Main@L3.2
Format settings, CABAC : Yes
Format settings, ReFrames : 1 frame
Codec ID : avc1
Codec ID/Info : Advanced Video Coding
Duration : 1h 44mn
Bit rate : 2 206 Kbps
Width : 1 280 pixels
Height : 720 pixels
Display aspect ratio : 16:9
Frame rate mode : Constant
Frame rate : 60.000 fps
Color space : YUV
Chroma subsampling : 4:2:0
Bit depth : 8 bits
Scan type : Progressive
Bits/(Pixel*Frame) : 0.040
Stream size : 1.60 GiB (92%)
Writing library : x264 core 129

Encoded date : UTC 2014-10-07 11:45:38
Tagged date : UTC 2014-10-07 11:45:38

Audio
ID : 2
Format : AAC
Format/Info : Advanced Audio Codec
Format profile : LC
Codec ID : 40
Duration : 1h 44mn
Duration_FirstFrame : 64ms
Bit rate mode : Variable
Bit rate : 176 Kbps
Maximum bit rate : 384 Kbps
Channel(s) : 6 channels
Channel positions : Front: L C R, Side: L R, LFE
Sampling rate : 48.0 KHz
Compression mode : Lossy
Stream size : 131 MiB (7%)
Encoded date : UTC 2014-10-07 11:45:38
Tagged date : UTC 2014-10-07 11:45:38

СКОРО СКАЧАТЬ В КАЧЕСТВЕ 1280-720Р ЗВУК 5.1 60 FPS

Доступно только для пользователей

СКРИНШОТЫ






Прикрепления: 4390955.jpg(745Kb) · 3632810.jpg(507Kb) · 5159869.jpg(556Kb) · 1405066.jpg(485Kb) · 9768525.jpg(500Kb)


Сообщение отредактировал murrshako - Воскресенье, 28.12.2014, 17:33
 
murrshakoДата: Среда, 17.12.2014, 16:21 | Сообщение # 3
Группа: Администраторы
Сообщений: 2051
Репутация: 55
Статус: Offline



Колдовская любовь / El Amor brujo / A Love Bewitched (Карлос Саура / Carlos Saura) [1986, Испания, драма, музыка, фламенко, DVD9 (custom)] Dub + VO + Orig (Es) [R1] Criterion Eclipse Series 6, disc 3



Производитель: The Criterion pic Eclipse Series 6

Перевод #1: Профессиональный (полное дублирование) (СССР)
Перевод #2: Одноголосый закадровый -- Владислав Огородников aka Лектор
Оригинальная дорожка: испанский
Русские субтитры: нет
Другие субтитры: английский

Доп. информация: Диск скачан с Синематика (спасибо violator99!). Он уже раздавался на Рутрэкере renege79, который снабдил его советским дубляжом:
renege79 писал(а):
Дорожка с советским дубляжем предоставлена АнтВ, оцифровка dsz. Синхронизация звука моя.
Спасибо всем троим! Дубляж из релиза renege79 идёт первым потоком и запускается по умолчанию. К сожалению, качество звука этой дорожки весьма неважное. Поэтому вторым потоком я добавил одноголосый перевод с DVD5 (сжатый) из раздачи Walrus3844 (благодарствуйте!). Оригинальный звук — третья дорожка.
Меню не редактировалось. Переключение звуковых дорожек с пульта. Управление английскими субтитрами из меню

Дополнительные материалы: нет

Меню: статичное, неозвученное (англ. яз.)

Сэмпл: http://multi-up.com/743117

Качество: DVD9 (custom)
Контейнер: DVD-Video

Видео: NTSC 16:9 (720x480) VBR, Auto Letterboxed (~8933.86 kbps avg)
Аудио #1: Russian, AC3, 2/0 (L,R) ch, 192 kbps
Аудио #2: Russian, AC3, 1/0 © ch, 128 kbps
Аудио #3: Español, AC3, 2/0 (L,R) ch, 192 kbps
Субтитры: English

Статус: √ проверено
.torrent скачан: 582 раза
Размер: 6.48 GB

Доступно только для пользователей
.....................................................................................................
Рип сделан мной со взятого на Синематике DVD-9
Дорожка с советским дубляжем предоставлена АнтВ, оцифровка dsz
Синхронизация звука моя

Сэмпл

Качество: DVDRip
Формат: DVD Video
Видео кодек: XviD
Аудио кодек: MP3
Видео: 640x384 (1.67:1), 23.976 fps, XviD build 46 ~1169 kbps avg, 0.20 bit/pixel
Аудио: Audio #1: 48 kHz, MPEG Layer 3, 2 ch, ~128.00 kbps avg (Rus) Audio #2: 48 kHz, AC3 Dolby Digital, 2/0 (L,R) Surround Encoded ch, ~192 kbps (Esp)

Статус: √ проверено
.torrent скачан: 1773 раза
Размер: 1.09 GB

Доступно только для пользователей

Прикрепления: 3269230.jpg(203Kb)
 
ЦЫГАНЕ=ROMA=Cingaris=GYPSIES=CIGANOS=吉普賽人=ZINGARI=जिप्सФорум » ЦЫГАНСКИЙ РАЗДЕЛ » ФИЛЬМЫ НА ЦЫГАНСКУЮ ТЕМАТИКУ FULL HD 720P 60 FPS » Колдовская любовь • El Amor brujo 1986 (Страна: ИспанияЖанр: драма, музыка, фламенко)
Страница 1 из 11
Поиск:

тест скорости интернета
| Copyright MyCorp © 2017 | |