благодарю!!ромалэ
ЯндексЯндекс. ДеньгиХочу такую же кнопку

http://murrshako-rom.ucoz.ru$724.67$724.67Сколько стоит ваш?

Кармен / Carmen (Жак Малатье / Jacques Malaterre) 2011, - ЦЫГАНЕ=ROMA=Cingaris=GYPSIES=CIGANOS=吉普賽人=ZINGARI=जिप्सФорум
RADIO

GIPSY VOICE
radio

ЦЫГАНСКИЕ СТРУНЫ
радио

Воскресенье, 17.12.2017, 22:30
Главная
Регистрация
Вход
Цыганский портал!!!приветствую ромалэ!!зачан!!
Приветствую Вас Гость | RSS
[ Новые сообщения · Участники · Правила форума · Поиск · RSS ]
Страница 1 из 11
ЦЫГАНЕ=ROMA=Cingaris=GYPSIES=CIGANOS=吉普賽人=ZINGARI=जिप्सФорум » ЦЫГАНСКИЙ РАЗДЕЛ » ФИЛЬМЫ НА ЦЫГАНСКУЮ ТЕМАТИКУ FULL HD 720P 60 FPS » Кармен / Carmen (Жак Малатье / Jacques Malaterre) 2011, (Художественный фильм про-во Франция, драма)
Кармен / Carmen (Жак Малатье / Jacques Malaterre) 2011,
murrshakoДата: Среда, 17.12.2014, 17:09 | Сообщение # 1
Группа: Администраторы
Сообщений: 2053
Репутация: 55
Статус: Offline



Кармен / Carmen (Жак Малатье / Jacques Malaterre) [2011, Франция, драма, SATRip] MVO (Культура)



Страна: Франция
Жанр: драма
Год выпуска: 2011
Продолжительность: 01:36:52

Перевод: Профессиональный (многоголосый закадровый) студия "Акцент-Про" по заказу ГТРК "Культура"
Cубтитры: нет
Оригинальная аудиодорожка: нет

Режиссер: Жак Малатье / Jacques Malaterre

В ролях: Виктория Луэнго, Бернар Бланкан, Хелми Дриди, Антуан Оппенхайм, Марион Касабьянка, Анатоль де Бодина, Кевин Диана, Клодин Башет.

Описание: Франция начала ХХ века. В романтичный край Камарг, воспламеняя сердца суровых фермеров и вольнолюбивых цыган, приходит с тайной целью юная Кармен…

Доп. информация: IPTVRip с канала "Культура"

СКОРО СМОТРЕТЬ В КАЧЕСТВЕ 1280-720Р ВО ВЕСЬ ЭКРАН


Handino
miha2154
огромное вам спасибо за этот ценный подарок!

Года полтора назад искал, искал этот фильм, но безуспешно, кроме отрывков с youtube ничего не нашёл.
А фильм оказывается у нас на трекере преспокойно лежит уже более 5 месяцев.

В этом фильме принимает участие известный коллектив музыкантов с Камарга - Gitano Family, которая исполняет музыку в этом фильме.
Кому интересно, месяц назад выложил на трекере дискографию Gitano Family, она здесь:
http://rutracker.org/forum/viewtopic.php?t=4476258
Там, кстати есть саундтреки к этому фильму, альбом так и называется Carmen
Прикрепления: 1946006.jpg(48Kb)
 
murrshakoДата: Пятница, 26.12.2014, 14:07 | Сообщение # 2
Группа: Администраторы
Сообщений: 2053
Репутация: 55
Статус: Offline


СМОТРЕТЬ ОНЛАЙН В КАЧЕСТВЕ 1280-720Р ВО ВЕСЬ ЭКРАН БЕЗ ЧЕРНЫХ ПОЛОС

Доступно только для пользователей





150\60FPS\КАРМЕН CARMEN ЖАК МАЛАТЬЕ JACQUES MALATERRE 2011.mp4
Format : MPEG-4
Format profile : Base Media
Codec ID : isom
File size : 1.67 GiB
Duration : 1h 37mn
Overall bit rate mode : Variable
Overall bit rate : 2 462 Kbps
Encoded date : UTC 2014-10-07 11:45:38
Tagged date : UTC 2014-10-07 11:45:38
Writing application : Lavf54.63.104

Video
ID : 1
Format : AVC
Format/Info : Advanced Video Codec
Format profile : Main@L3.2
Format settings, CABAC : Yes
Format settings, ReFrames : 1 frame
Codec ID : avc1
Codec ID/Info : Advanced Video Coding
Duration : 1h 37mn
Bit rate : 2 206 Kbps
Width : 1 280 pixels
Height : 720 pixels
Display aspect ratio : 16:9
Frame rate mode : Constant
Frame rate : 60.000 fps
Color space : YUV
Chroma subsampling : 4:2:0
Bit depth : 8 bits
Scan type : Progressive
Bits/(Pixel*Frame) : 0.040
Stream size : 1.52 GiB (91%)
Writing library : x264 core 129
Encoding settings

Audio
ID : 2
Format : AAC
Format/Info : Advanced Audio Codec
Format profile : LC
Codec ID : 40
Duration : 1h 37mn
Duration_FirstFrame : 64ms
Bit rate mode : Variable
Bit rate : 219 Kbps
Maximum bit rate : 384 Kbps
Channel(s) : 6 channels
Channel positions : Front: L C R, Side: L R, LFE
Sampling rate : 48.0 KHz
Compression mode : Lossy
Stream size : 152 MiB (9%)
Encoded date : UTC 2014-10-07 11:45:38
Tagged date : UTC 2014-10-07 11:45:38

СКОРО СКАЧАТЬ ФИЛЬМ В КАЧЕСТВЕ 1280-720Р СО ЗВУКОМ 5.1 И 60 FPS ВО ВЕСЬ ЭКРАН .БЕЗ ЧЕРНЫХ ПОЛОС

СКРИНШОТЫ








Прикрепления: 1552115.jpg(600Kb) · 4823544.jpg(600Kb) · 8817259.jpg(536Kb) · 2947035.jpg(514Kb) · 2485889.jpg(499Kb)
 
ЦЫГАНЕ=ROMA=Cingaris=GYPSIES=CIGANOS=吉普賽人=ZINGARI=जिप्सФорум » ЦЫГАНСКИЙ РАЗДЕЛ » ФИЛЬМЫ НА ЦЫГАНСКУЮ ТЕМАТИКУ FULL HD 720P 60 FPS » Кармен / Carmen (Жак Малатье / Jacques Malaterre) 2011, (Художественный фильм про-во Франция, драма)
Страница 1 из 11
Поиск:

тест скорости интернета
| Copyright MyCorp © 2017 | |