благодарю!!ромалэ
ЯндексЯндекс. ДеньгиХочу такую же кнопку

http://murrshako-rom.ucoz.ru$724.67$724.67Сколько стоит ваш?

Цыганская кровь / Циганська кров (2014) - ЦЫГАНЕ=ROMA=Cingaris=GYPSIES=CIGANOS=吉普賽人=ZINGARI=जिप्सФорум
RADIO

GIPSY VOICE
radio

ЦЫГАНСКИЕ СТРУНЫ
радио

Четверг, 25.05.2017, 13:31
Главная
Регистрация
Вход
Цыганский портал!!!приветствую ромалэ!!зачан!!
Приветствую Вас Гость | RSS
[ Новые сообщения · Участники · Правила форума · Поиск · RSS ]
Страница 1 из 11
ЦЫГАНЕ=ROMA=Cingaris=GYPSIES=CIGANOS=吉普賽人=ZINGARI=जिप्सФорум » ЦЫГАНСКИЙ РАЗДЕЛ » ФИЛЬМЫ НА ЦЫГАНСКУЮ ТЕМАТИКУ FULL HD 720P 60 FPS » Цыганская кровь / Циганська кров (2014) (Документальный про-во Украина)
Цыганская кровь / Циганська кров (2014)
murrshakoДата: Пятница, 19.12.2014, 17:20 | Сообщение # 1
Группа: Администраторы
Сообщений: 2041
Репутация: 55
Статус: Offline






На протяжении веков цыгане живут среди нас , и все это время их боятся и сторонятся . Документальный фильм собственного производства 1 +1 "Цыганская кровь" - это увлекательное путешествие в уникальный мир одной из самых закрытых и загадочных сообществ в Украине . Похищение невест , свадьба в тринадцать лет и настоящая свадьба сына цыганского барона. Почему цыгане любят золото ? И как умение гадать передается по крови. Лимузины и повозки - роскошь , граничащая с нищетой.

СМОТРЕТЬ ФИЛЬМ В КАЧЕСТВЕ 1280-720Р ВО ВЕСЬ ЭКРАН БЕЗ ЧЕРНЫЗ ПОЛОС

Доступно только для пользователей

Прикрепления: 2856630.jpg(30Kb)
 
murrshakoДата: Пятница, 19.12.2014, 17:41 | Сообщение # 2
Группа: Администраторы
Сообщений: 2041
Репутация: 55
Статус: Offline
Complete name : D:\Кассандра 101-150\60FPS\цыганская кровь 2014 Украина документальный.mp4
Format : MPEG-4
Format profile : Base Media
Codec ID : isom
File size : 942 MiB
Duration : 54mn 45s
Overall bit rate mode : Variable
Overall bit rate : 2 404 Kbps
Encoded date : UTC 2014-10-07 11:45:38
Tagged date : UTC 2014-10-07 11:45:38
Writing application : Lavf54.63.104

Video
ID : 1
Format : AVC
Format/Info : Advanced Video Codec
Format profile : Main@L3.2
Format settings, CABAC : Yes
Format settings, ReFrames : 1 frame
Codec ID : avc1
Codec ID/Info : Advanced Video Coding
Duration : 54mn 45s
Bit rate : 2 206 Kbps
Width : 1 280 pixels
Height : 720 pixels
Display aspect ratio : 16:9
Frame rate mode : Constant
Frame rate : 60.000 fps
Color space : YUV
Chroma subsampling : 4:2:0
Bit depth : 8 bits
Scan type : Progressive
Bits/(Pixel*Frame) : 0.040
Stream size : 866 MiB (92%)
Writing library : x264 core 129
Encoding settin

Audio
ID : 2
Format : AAC
Format/Info : Advanced Audio Codec
Format profile : LC
Codec ID : 40
Duration : 54mn 45s
Duration_FirstFrame : 64ms
Bit rate mode : Variable
Bit rate : 184 Kbps
Maximum bit rate : 384 Kbps
Channel(s) : 6 channels
Channel positions : Front: L C R, Side: L R, LFE
Sampling rate : 48.0 KHz
Compression mode : Lossy
Stream size : 72.3 MiB (8%)
Encoded date : UTC 2014-10-07 11:45:38
Tagged date : UTC 2014-10-07 11:45:38

СКАЧАТЬ ФИЛЬМ В КАЧЕСТВЕ 1280-720Р ЗВУКОМ 5.1 И 60FPS

Доступно только для пользователей

СКРИНШОТЫ







Прикрепления: 7029723.jpg(478Kb) · 5097268.jpg(598Kb) · 3954448.jpg(577Kb) · 5992121.jpg(463Kb) · 7480735.jpg(552Kb)


Сообщение отредактировал murrshako - Суббота, 20.12.2014, 13:26
 
ЦЫГАНЕ=ROMA=Cingaris=GYPSIES=CIGANOS=吉普賽人=ZINGARI=जिप्सФорум » ЦЫГАНСКИЙ РАЗДЕЛ » ФИЛЬМЫ НА ЦЫГАНСКУЮ ТЕМАТИКУ FULL HD 720P 60 FPS » Цыганская кровь / Циганська кров (2014) (Документальный про-во Украина)
Страница 1 из 11
Поиск:

тест скорости интернета
| Copyright MyCorp © 2017 | |