благодарю!!ромалэ
ЯндексЯндекс. ДеньгиХочу такую же кнопку

http://murrshako-rom.ucoz.ru$724.67$724.67Сколько стоит ваш?

Клан Реалити-шоу ICTV 2014 - Страница 2 - ЦЫГАНЕ=ROMA=Cingaris=GYPSIES=CIGANOS=吉普賽人=ZINGARI=जिप्सФорум
RADIO

GIPSY VOICE
radio

ЦЫГАНСКИЕ СТРУНЫ
радио

Пятница, 21.07.2017, 23:33
Главная
Регистрация
Вход
Цыганский портал!!!приветствую ромалэ!!зачан!!
Приветствую Вас Гость | RSS
[ Новые сообщения · Участники · Правила форума · Поиск · RSS ]
Страница 2 из 2«12
ЦЫГАНЕ=ROMA=Cingaris=GYPSIES=CIGANOS=吉普賽人=ZINGARI=जिप्सФорум » ЦЫГАНСКИЙ РАЗДЕЛ » ФИЛЬМЫ НА ЦЫГАНСКУЮ ТЕМАТИКУ FULL HD 720P 60 FPS » Клан Реалити-шоу ICTV 2014 (спецпроект телеканала ICTV Украина)
Клан Реалити-шоу ICTV 2014
murrshakoДата: Четверг, 25.12.2014, 13:11 | Сообщение # 6
Группа: Администраторы
Сообщений: 2051
Репутация: 55
Статус: Offline


СМОТРЕТЬ ОНЛАЙН 5 СЕРИЮ РЕАЛИТИ ШОУ =КЛАН=В КАЧЕСТВЕ 1280-720Р ВО ВЕСЬ ЭКРАН БЕЗ ЧЕРНЫХ ПОЛОС
Цыганского барона обвинили в крышевании наркобизнеса - Клан, выпуск 5


Доступно только для пользователей
150\60FPS\Цыганского барона обвинили в крышевании наркобизнеса - Клан, выпуск 5.mp4
Format : MPEG-4
Format profile : Base Media
Codec ID : isom
File size : 691 MiB
Duration : 41mn 26s
Overall bit rate mode : Variable
Overall bit rate : 2 332 Kbps
Encoded date : UTC 2014-10-07 11:45:38
Tagged date : UTC 2014-10-07 11:45:38
Writing application : Lavf54.63.104

Video
ID : 1
Format : AVC
Format/Info : Advanced Video Codec
Format profile : Main@L3.2
Format settings, CABAC : Yes
Format settings, ReFrames : 1 frame
Codec ID : avc1
Codec ID/Info : Advanced Video Coding
Duration : 41mn 26s
Bit rate : 2 206 Kbps
Width : 1 280 pixels
Height : 720 pixels
Display aspect ratio : 16:9
Frame rate mode : Constant
Frame rate : 60.000 fps
Color space : YUV
Chroma subsampling : 4:2:0
Bit depth : 8 bits
Scan type : Progressive
Bits/(Pixel*Frame) : 0.040
Stream size : 656 MiB (95%)
Writing library : x264 core 129
Encoding sett

Audio
ID : 2
Format : AAC
Format/Info : Advanced Audio Codec
Format profile : LC
Codec ID : 40
Duration : 41mn 26s
Duration_FirstFrame : 64ms
Bit rate mode : Variable
Bit rate : 111 Kbps
Maximum bit rate : 384 Kbps
Channel(s) : 6 channels
Channel positions : Front: L C R, Side: L R, LFE
Sampling rate : 48.0 KHz
Compression mode : Lossy
Stream size : 32.9 MiB (5%)
Encoded date : UTC 2014-10-07 11:45:38
Tagged date : UTC 2014-10-07 11:45:38

СКАЧАТЬ ФИЛЬМ В КАЧЕСТВЕ 1280-720Р СО ЗВУКОМ 5.1 И 60 FPS ВО ВЕСЬ ЭКРАН .БЕЗ ЧЕРНЫХ ПОЛОС

Доступно только для пользователей

СКРИНШОТЫ









Прикрепления: 8386038.jpg(494Kb) · 7620943.jpg(443Kb) · 0184220.jpg(443Kb) · 6660463.jpg(541Kb) · 5370120.jpg(436Kb)


Сообщение отредактировал murrshako - Четверг, 25.12.2014, 13:16
 
murrshakoДата: Пятница, 26.12.2014, 13:55 | Сообщение # 7
Группа: Администраторы
Сообщений: 2051
Репутация: 55
Статус: Offline


СМОТРЕТЬ ОНЛАЙН 6 СЕРИЮ РЕАЛИТИ ШОУ =КЛАН=В КАЧЕСТВЕ 1280-720Р ВО ВЕСЬ ЭКРАН БЕЗ ЧЕРНЫХ ПОЛОС

Клан выпуск 6 настоящая цыганская свадьба

Доступно только для пользователей



150\60FPS\Клан выпуск 6 настоящая цыганская свадьба.mp4
Format : MPEG-4
Format profile : Base Media
Codec ID : isom
File size : 746 MiB
Duration : 44mn 46s
Overall bit rate mode : Variable
Overall bit rate : 2 329 Kbps
Encoded date : UTC 2014-10-07 11:45:38
Tagged date : UTC 2014-10-07 11:45:38
Writing application : Lavf54.63.104

Video
ID : 1
Format : AVC
Format/Info : Advanced Video Codec
Format profile : Main@L3.2
Format settings, CABAC : Yes
Format settings, ReFrames : 1 frame
Codec ID : avc1
Codec ID/Info : Advanced Video Coding
Duration : 44mn 46s
Bit rate : 2 206 Kbps
Width : 1 280 pixels
Height : 720 pixels
Display aspect ratio : 16:9
Frame rate mode : Constant
Frame rate : 60.000 fps
Color space : YUV
Chroma subsampling : 4:2:0
Bit depth : 8 bits
Scan type : Progressive
Bits/(Pixel*Frame) : 0.040
Stream size : 707 MiB (95%)
Writing library : x264 core 129
Encoding settings

Audio
ID : 2
Format : AAC
Format/Info : Advanced Audio Codec
Format profile : LC
Codec ID : 40
Duration : 44mn 46s
Duration_FirstFrame : 64ms
Bit rate mode : Variable
Bit rate : 111 Kbps
Maximum bit rate : 384 Kbps
Channel(s) : 6 channels
Channel positions : Front: L C R, Side: L R, LFE
Sampling rate : 48.0 KHz
Compression mode : Lossy
Stream size : 35.5 MiB (5%)
Encoded date : UTC 2014-10-07 11:45:38
Tagged date : UTC 2014-10-07 11:45:38



СКАЧАТЬ ФИЛЬМ В КАЧЕСТВЕ 1280-720Р СО ЗВУКОМ 5.1 И 60 FPS ВО ВЕСЬ ЭКРАН .БЕЗ ЧЕРНЫХ ПОЛОС

Доступно только для пользователей

или

Доступно только для пользователей

СКРИНШОТЫ








Прикрепления: 8093497.jpg(470Kb) · 2581628.jpg(517Kb) · 4709711.jpg(416Kb) · 8336284.jpg(481Kb) · 9460324.jpg(479Kb)
 
murrshakoДата: Воскресенье, 28.12.2014, 15:54 | Сообщение # 8
Группа: Администраторы
Сообщений: 2051
Репутация: 55
Статус: Offline
150\60FPS\Клан, выпуск 7Возвращение блудного зятя.mp4
Format : MPEG-4
Format profile : Base Media
Codec ID : isom
File size : 721 MiB
Duration : 43mn 2s
Overall bit rate mode : Variable
Overall bit rate : 2 342 Kbps
Encoded date : UTC 2014-10-07 11:45:38
Tagged date : UTC 2014-10-07 11:45:38
Writing application : Lavf54.63.104

Video
ID : 1
Format : AVC
Format/Info : Advanced Video Codec
Format profile : Main@L3.2
Format settings, CABAC : Yes
Format settings, ReFrames : 1 frame
Codec ID : avc1
Codec ID/Info : Advanced Video Coding
Duration : 43mn 2s
Bit rate : 2 206 Kbps
Width : 1 280 pixels
Height : 720 pixels
Display aspect ratio : 16:9
Frame rate mode : Constant
Frame rate : 60.000 fps
Color space : YUV
Chroma subsampling : 4:2:0
Bit depth : 8 bits
Scan type : Progressive
Bits/(Pixel*Frame) : 0.040
Stream size : 679 MiB (94%)
Writing libra

Audio
ID : 2
Format : AAC
Format/Info : Advanced Audio Codec
Format profile : LC
Codec ID : 40
Duration : 43mn 2s
Duration_FirstFrame : 64ms
Bit rate mode : Variable
Bit rate : 127 Kbps
Maximum bit rate : 384 Kbps
Channel(s) : 6 channels
Channel positions : Front: L C R, Side: L R, LFE
Sampling rate : 48.0 KHz
Compression mode : Lossy
Stream size : 39.2 MiB (5%)
Encoded date : UTC 2014-10-07 11:45:38
Tagged date : UTC 2014-10-07 11:45:38

СКАЧАТЬ ФИЛЬМ В КАЧЕСТВЕ 1280-720Р СО ЗВУКОМ 5.1 И 60 FPS ВО ВЕСЬ ЭКРАН .БЕЗ ЧЕРНЫХ ПОЛОС

Доступно только для пользователей






СКРИНШОТЫ

Прикрепления: 2352592.jpg(507Kb) · 8999235.jpg(476Kb) · 1253917.jpg(501Kb) · 6295355.jpg(480Kb) · 2059138.jpg(443Kb)


Сообщение отредактировал murrshako - Понедельник, 23.03.2015, 18:04
 
murrshakoДата: Воскресенье, 28.12.2014, 16:23 | Сообщение # 9
Группа: Администраторы
Сообщений: 2051
Репутация: 55
Статус: Offline
150\60FPS\Клан, выпуск 8Тайны завещания циганского барона.mp4
Format : MPEG-4
Format profile : Base Media
Codec ID : isom
File size : 852 MiB
Duration : 51mn 17s
Overall bit rate mode : Variable
Overall bit rate : 2 322 Kbps
Encoded date : UTC 2014-10-07 11:45:38
Tagged date : UTC 2014-10-07 11:45:38
Writing application : Lavf54.63.104

Video
ID : 1
Format : AVC
Format/Info : Advanced Video Codec
Format profile : Main@L3.2
Format settings, CABAC : Yes
Format settings, ReFrames : 1 frame
Codec ID : avc1
Codec ID/Info : Advanced Video Coding
Duration : 51mn 17s
Bit rate : 2 206 Kbps
Width : 1 280 pixels
Height : 720 pixels
Display aspect ratio : 16:9
Frame rate mode : Constant
Frame rate : 60.000 fps
Color space : YUV
Chroma subsampling : 4:2:0
Bit depth : 8 bits
Scan type : Progressive
Bits/(Pixel*Frame) : 0.040
Stream size : 808 MiB (95%)
Writing library : x264 core 129
Encoding se

Audio
ID : 2
Format : AAC
Format/Info : Advanced Audio Codec
Format profile : LC
Codec ID : 40
Duration : 51mn 17s
Duration_FirstFrame : 64ms
Bit rate mode : Variable
Bit rate : 110 Kbps
Maximum bit rate : 384 Kbps
Channel(s) : 6 channels
Channel positions : Front: L C R, Side: L R, LFE
Sampling rate : 48.0 KHz
Compression mode : Lossy
Stream size : 40.5 MiB (5%)
Encoded date : UTC 2014-10-07 11:45:38
Tagged date : UTC 2014-10-07 11:45:38

СКАЧАТЬ ФИЛЬМ В КАЧЕСТВЕ 1280-720Р СО ЗВУКОМ 5.1 И 60 FPS ВО ВЕСЬ ЭКРАН .БЕЗ ЧЕРНЫХ ПОЛОС

Доступно только для пользователей

СКРИНШОТЫ







Прикрепления: 9998887.jpg(496Kb) · 5406798.jpg(382Kb) · 2393269.jpg(473Kb) · 0595387.jpg(510Kb) · 5176176.jpg(492Kb)


Сообщение отредактировал murrshako - Понедельник, 23.03.2015, 18:03
 
ЦЫГАНЕ=ROMA=Cingaris=GYPSIES=CIGANOS=吉普賽人=ZINGARI=जिप्सФорум » ЦЫГАНСКИЙ РАЗДЕЛ » ФИЛЬМЫ НА ЦЫГАНСКУЮ ТЕМАТИКУ FULL HD 720P 60 FPS » Клан Реалити-шоу ICTV 2014 (спецпроект телеканала ICTV Украина)
Страница 2 из 2«12
Поиск:

тест скорости интернета
| Copyright MyCorp © 2017 | |