благодарю!!ромалэ
ЯндексЯндекс. ДеньгиХочу такую же кнопку

http://murrshako-rom.ucoz.ru$724.67$724.67Сколько стоит ваш?

Табор уходит в зону (2011) - ЦЫГАНЕ=ROMA=Cingaris=GYPSIES=CIGANOS=吉普賽人=ZINGARI=जिप्सФорум
RADIO

GIPSY VOICE
radio

ЦЫГАНСКИЕ СТРУНЫ
радио

Воскресенье, 24.09.2017, 06:11
Главная
Регистрация
Вход
Цыганский портал!!!приветствую ромалэ!!зачан!!
Приветствую Вас Гость | RSS
[ Новые сообщения · Участники · Правила форума · Поиск · RSS ]
Страница 1 из 11
ЦЫГАНЕ=ROMA=Cingaris=GYPSIES=CIGANOS=吉普賽人=ZINGARI=जिप्सФорум » ЦЫГАНСКИЙ РАЗДЕЛ » ФИЛЬМЫ НА ЦЫГАНСКУЮ ТЕМАТИКУ FULL HD 720P 60 FPS » Табор уходит в зону (2011) (Специальный корреспондент Про-во Россия)
Табор уходит в зону (2011)
murrshakoДата: Воскресенье, 21.12.2014, 13:54 | Сообщение # 1
Группа: Администраторы
Сообщений: 2053
Репутация: 55
Статус: Offline


Специальный корреспондент - Табор уходит в зону (2011) смотреть онлайн




"Специальный корреспондент" - это популярная публицистическая программа, которая выходит на телеканале "Россия" с сентября 2002 года. Каждую неделю один из ведущих рассказывает в своем фильме-репортаже о какой-либо актуальной проблеме, существующей в современном обществе, посвящает зрительскую аудиторию в подробности наиболее значимых для страны и мира событий.
Взрывы, поджоги, убийства. У них отнимают дома, землю и технику, а не сговорчивых убивают. Как защитить предпринимателей от насилия и произвола? Как остановить сращивание чиновников и криминала? В этом выпуске смотрите фильм А. Рогаткина "Большая война малого бизнеса", и обсуждении в студии с Марией Ситтель.

СКОРО СМОТРЕТЬ ОНЛАЙН В КАЧЕСТВЕ 1280-720Р ВО ВЕСЬ ЭКРАН


Дмитрий Степачкин

Вот если бы Медведев с Путиным смотрели на завтрак или обед по одному репортажу в день, может быть что-то бы и изменилось в этой жизни.

........
murrshako
разве Путин с Медведевым с луны свались?или они не вышли из обычной женской.......и не росли как все?не знают повседневных реалий?Может Путин как царь Батюшка по крови Романовых там в кремле оказался?Он с самых низов с самого дна карабкался на вершину..поверьте...все он знает

А вот такие слова как предисловие к фильму

цитата

На Каннском фестивале разразился грандиозный скандал. Суперзвезда, датчанин Ларс фон Триер был с позором изгнан из Канн. Он стал персоной нон грата за то, что заявил о своей принадлежности к нацистам. В Европе сегодня такое не спускают, там помнят, как Гитлер именно по национальной принадлежности убивал цыган и евреев. Цыганам и сегодня трудно. Неважно, где они живут - в Европе или в России. Цыганский народ в России переживает большую трагедию. Об этом фильм Бориса Соболева

.......................................

К ЧЕМУ эти слова?дать понять что человека в каннах осудили за такое высказывание а эти ромалэ творят такие дела и как бы между строк

может был прав -мой Фюрер-что хотел уничтожить этих жидов и Чавэрлей
и в отмазку сгладить углы слова--
да..цыганский народ переживает трудный период.....и т.д.
И это говорят не в Германии на Арийском канале а в России...где мы знаем что тот же Фюрер отвел роль Русскому народу как
раб силе и не более того....разве не лучше быть приговоренным чем рабом?хотя есть персонажи где считают что
живая собака ...лучше мертвого льва......вот такие бы и раболепствовали а гордые показали фак Гитлеру и выбрали уничтожение....

http://www.youtube.com/watch?v=gDN_NIZslzg

СМОТРЕТЬ ФИЛЬМ В КАЧЕСТВЕ 1280-720 ВО ВЕСЬ ЭКРАН БЕЗ ЧЕРНЫХ ПОЛОС







Прикрепления: 6314265.jpg(23Kb)


Сообщение отредактировал murrshako - Воскресенье, 28.12.2014, 15:41
 
murrshakoДата: Воскресенье, 21.12.2014, 15:09 | Сообщение # 2
Группа: Администраторы
Сообщений: 2053
Репутация: 55
Статус: Offline
File size : 907 MiB
Duration : 53mn 30s
Overall bit rate mode : Variable
Overall bit rate : 2 371 Kbps
Encoded date : UTC 2014-10-07 11:45:38
Tagged date : UTC 2014-10-07 11:45:38
Writing application : Lavf54.63.104

Video
ID : 1
Format : AVC
Format/Info : Advanced Video Codec
Format profile : Main@L3.2
Format settings, CABAC : Yes
Format settings, ReFrames : 1 frame
Codec ID : avc1
Codec ID/Info : Advanced Video Coding
Duration : 53mn 30s
Bit rate : 2 206 Kbps
Width : 1 280 pixels
Height : 720 pixels
Display aspect ratio : 16:9
Frame rate mode : Constant
Frame rate : 60.000 fps
Color space : YUV
Chroma subsampling : 4:2:0
Bit depth : 8 bits
Scan type : Progressive
Bits/(Pixel*Frame) : 0.040
Stream size : 842 MiB (93%)
Writing library : x264 core 129
Encoding settings

Audio
ID : 2
Format : AAC
Format/Info : Advanced Audio Codec
Format profile : LC
Codec ID : 40
Duration : 53mn 30s
Duration_FirstFrame : 64ms
Bit rate mode : Variable
Bit rate : 161 Kbps
Maximum bit rate : 384 Kbps
Channel(s) : 6 channels
Channel positions : Front: L C R, Side: L R, LFE
Sampling rate : 48.0 KHz
Compression mode : Lossy
Stream size : 61.5 MiB (7%)
Encoded date : UTC 2014-10-07 11:45:38
Tagged date

СКОРО СКАЧАТЬ ФИЛЬМ В КАЧЕСТВЕ 1280-720 ЗВУК 5.1 ВО ВЕСЬ ЭКРАН 60 FPS

Доступно только для пользователей
СКРИНШОТЫ





Прикрепления: 1548614.jpg(442Kb) · 6208292.jpg(520Kb) · 4327883.jpg(470Kb) · 1409134.jpg(460Kb) · 8832230.jpg(486Kb)


Сообщение отредактировал murrshako - Вторник, 30.12.2014, 16:27
 
ЦЫГАНЕ=ROMA=Cingaris=GYPSIES=CIGANOS=吉普賽人=ZINGARI=जिप्सФорум » ЦЫГАНСКИЙ РАЗДЕЛ » ФИЛЬМЫ НА ЦЫГАНСКУЮ ТЕМАТИКУ FULL HD 720P 60 FPS » Табор уходит в зону (2011) (Специальный корреспондент Про-во Россия)
Страница 1 из 11
Поиск:

тест скорости интернета
| Copyright MyCorp © 2017 | |