благодарю!!ромалэ
ЯндексЯндекс. ДеньгиХочу такую же кнопку

http://murrshako-rom.ucoz.ru$724.67$724.67Сколько стоит ваш?

Фараоново племя. Ромалы - ЦЫГАНЕ=ROMA=Cingaris=GYPSIES=CIGANOS=吉普賽人=ZINGARI=जिप्सФорум
RADIO

GIPSY VOICE
radio

ЦЫГАНСКИЕ СТРУНЫ
радио

Воскресенье, 28.05.2017, 15:24
Главная
Регистрация
Вход
Цыганский портал!!!приветствую ромалэ!!зачан!!
Приветствую Вас Гость | RSS
[ Новые сообщения · Участники · Правила форума · Поиск · RSS ]
Страница 1 из 11
ЦЫГАНЕ=ROMA=Cingaris=GYPSIES=CIGANOS=吉普賽人=ZINGARI=जिप्सФорум » ЦЫГАНСКИЙ РАЗДЕЛ » ФИЛЬМЫ НА ЦЫГАНСКУЮ ТЕМАТИКУ FULL HD 720P 60 FPS » Фараоново племя. Ромалы (2013, Россия Фильм, Документальный)
Фараоново племя. Ромалы
murrshakoДата: Понедельник, 29.12.2014, 15:06 | Сообщение # 1
Группа: Администраторы
Сообщений: 2041
Репутация: 55
Статус: Offline


Фараоново племя. Ромалы


Фильм, Документальный, 12+

Режиссёр:
Андрей Розов
Цыгане - великая загадка нашей цивилизации. Они живут по всему миру, а где их родина, не знает никто. У них нет государства, но есть гимн. Нет письменности, но есть язык. Нет дома, но есть семья.

В России цыгане живут 500 лет. Рядом со всеми и отдельно от всех. Не враги, но и не друзья.

Восемь самых известных мифов о цыганах. Почему испокон веков их называют "фараоновым племенем"? И откуда они все-таки появились: из Египта, Индии, Персии? Зачем воруют детей и что с ними делают? Правда ли, что им запрещено учиться, иначе – родовое проклятие? Во что и в кого они верят? Существует ли "цыганский гипноз", и есть ли от него защита? Скрыть

СМОТРЕТЬ ФИЛЬМ В КАЧЕСТВЕ 1280-720Р ВО ВЕСЬ ЭКРАН .БЕЗ ЧЕРНЫХ ПОЛОС







Прикрепления: 9769993.jpg(8Kb)


Сообщение отредактировал murrshako - Вторник, 30.12.2014, 16:21
 
murrshakoДата: Понедельник, 29.12.2014, 15:15 | Сообщение # 2
Группа: Администраторы
Сообщений: 2041
Репутация: 55
Статус: Offline


150\фараоново племя-ромале.mp4
Format : MPEG-4
Format profile : Base Media
Codec ID : isom
File size : 767 MiB
Duration : 44mn 26s
Overall bit rate mode : Variable
Overall bit rate : 2 414 Kbps
Encoded date : UTC 2014-10-07 11:45:38
Tagged date : UTC 2014-10-07 11:45:38
Writing application : Lavf54.63.104

Video
ID : 1
Format : AVC
Format/Info : Advanced Video Codec
Format profile : Main@L3.2
Format settings, CABAC : Yes
Format settings, ReFrames : 1 frame
Codec ID : avc1
Codec ID/Info : Advanced Video Coding
Duration : 44mn 26s
Bit rate : 2 206 Kbps
Width : 1 280 pixels
Height : 720 pixels
Display aspect ratio : 16:9
Frame rate mode : Constant
Frame rate : 60.000 fps
Color space : YUV
Chroma subsampling : 4:2:0
Bit depth : 8 bits
Scan type : Progressive
Bits/(Pixel*Frame) : 0.040
Stream size : 698 MiB (91%)
Writing library : x264 core 129
Encoding settings :

Audio
ID : 2
Format : AAC
Format/Info : Advanced Audio Codec
Format profile : LC
Codec ID : 40
Duration : 44mn 26s
Duration_FirstFrame : 64ms
Bit rate mode : Variable
Bit rate : 208 Kbps
Maximum bit rate : 384 Kbps
Channel(s) : 6 channels
Channel positions : Front: L C R, Side: L R, LFE
Sampling rate : 48.0 KHz
Compression mode : Lossy
Stream size : 66.1 MiB (9%)
Encoded date : UTC 2014-10-07 11:45:38
Tagged date : UTC 2014-10-07 11:45:38



СКАЧАТЬ ФИЛЬМ В КАЧЕСТВЕ 1280-720Р СО ЗВУКОМ 5.1 И 60 FPS ВО ВЕСЬ ЭКРАН .БЕЗ ЧЕРНЫХ ПОЛОС

Доступно только для пользователей

СКРИНШОТЫ








Прикрепления: 8847742.jpg(520Kb) · 0605872.jpg(458Kb) · 8248823.jpg(477Kb) · 5280829.jpg(500Kb) · 5064113.jpg(410Kb)
 
ЦЫГАНЕ=ROMA=Cingaris=GYPSIES=CIGANOS=吉普賽人=ZINGARI=जिप्सФорум » ЦЫГАНСКИЙ РАЗДЕЛ » ФИЛЬМЫ НА ЦЫГАНСКУЮ ТЕМАТИКУ FULL HD 720P 60 FPS » Фараоново племя. Ромалы (2013, Россия Фильм, Документальный)
Страница 1 из 11
Поиск:

тест скорости интернета
| Copyright MyCorp © 2017 | |