благодарю!!ромалэ
ЯндексЯндекс. ДеньгиХочу такую же кнопку

http://murrshako-rom.ucoz.ru$724.67$724.67Сколько стоит ваш?

СБОРНИК 3D ВЕРСИЙ НА ЦЫГАНСКУЮ ТЕМАТИКУ - ЦЫГАНЕ=ROMA=Cingaris=GYPSIES=CIGANOS=吉普賽人=ZINGARI=जिप्सФорум
RADIO

GIPSY VOICE
radio

ЦЫГАНСКИЕ СТРУНЫ
радио

Среда, 24.05.2017, 18:33
Главная
Регистрация
Вход
Цыганский портал!!!приветствую ромалэ!!зачан!!
Приветствую Вас Гость | RSS
[ Новые сообщения · Участники · Правила форума · Поиск · RSS ]
Страница 1 из 11
ЦЫГАНЕ=ROMA=Cingaris=GYPSIES=CIGANOS=吉普賽人=ZINGARI=जिप्सФорум » ЦЫГАНСКИЙ РАЗДЕЛ » ФИЛЬМЫ НА ЦЫГАНСКУЮ ТЕМАТИКУ FULL HD 720P 60 FPS » СБОРНИК 3D ВЕРСИЙ НА ЦЫГАНСКУЮ ТЕМАТИКУ (конвертация 2D в 3D Aiseesoft 3D Converter)
СБОРНИК 3D ВЕРСИЙ НА ЦЫГАНСКУЮ ТЕМАТИКУ
murrshakoДата: Пятница, 09.01.2015, 19:50 | Сообщение # 1
Группа: Администраторы
Сообщений: 2041
Репутация: 55
Статус: Offline



ТАБОР УХОДИТ В НЕБО 1975 В 3D ФОРМАТЕ

ГОРИЗОНТАЛЬНАЯ анаморфная СТЕРЕОПАРА без черных полос во весь экран

ВОСПРОИЗВОДИТСЯ НА ВСТРОЕННОМ ПЛЕРЕ ТЕЛЕВИЗОРА


Табор уходит в небо

picГод выпуска: 1976
Жанр: драма
Продолжительность: 95 минут

Режиссер: Эмиль Лотяну

В ролях: Григоре Григориу, Светлана Тома, Барасби Мулаев, Иван Шкуря, Павел Андрейченко, Серджу Финити, Борислав Брондуков, Ляля Черная, Нелли Волшанинова, Михаил Шишков, Николай Волшанинов, Василий Симчич, Елена Садовская

Описание: Удивительно поэтичный фильм о романтической, прекрасной и трагической любви удалого цыгана Лойко Зобара и гордой красавицы Радды. Красочная лента снята по мотивам ранних рассказов М. Горького.

Лидер проката (1976, 1 место) - 64.9 млн. зрителей. "Золотая раковина" МКФ в Сан-Себастьяне-76. "Лучший фильм 1976 года" на МКФ "Фест" в Белграде-77. Почетный диплом технического конкурса фильмов в рамках конгресса УНИАТЕК в Париже-79; Светлана Тома - лучшая актриса 1976 года по опросу журнала "Советский экран"

Доп. информация: Издание от Руссико. Несколько звуковых дорожек, субтитры. Дполнительные материалы - интервью со Светланой Тома, Евгением Догой и другие. Изображение как минимум не хуже чем у КП. Сравнение изданий на сайте Бартона:
Duration : 15mn 33s
Overall bit rate mode : Variable
Overall bit rate : 8 330 Kbps
Writing application : Lavf54.59.106

Video
ID : 1
Format : AVC
Format/Info : Advanced Video Codec
Format profile : Baseline@L4.0
Format settings, CABAC : No
Format settings, ReFrames : 2 frames
Codec ID : avc1
Codec ID/Info : Advanced Video Coding
Duration : 15mn 33s
Bit rate : 8 000 Kbps
Width : 1 920 pixels
Height : 1 080 pixels
Display aspect ratio : 16:9
Frame rate mode : Constant
Frame rate : 29.970 fps
Color space : YUV
Chroma subsampling : 4:2:0
Bit depth : 8 bits
Scan type : Progressive
Bits/(Pixel*Frame) : 0.129
Stream size : 909 MiB (98%)
Writing library : x264 core 135
Encoding settings : cabac=0 / ref=2 / deblock=1:0:0 /

Audio
ID : 2
Format : AAC
Format/Info : Advanced Audio Codec
Format profile : LC
Codec ID : 40
Duration : 15mn 32s
Duration_LastFrame : -1ms
Bit rate mode : Variable
Bit rate : 152 Kbps
Maximum bit rate : 192 Kbps
Channel(s) : 2 channels
Channel positions : Front: L R
Sampling rate : 44.1 KHz
Compression mode : Lossy
Stream size : 16.9 MiB (2%)



Я ПРИНОШУ СВОИ ИЗВИНЕНИЯ ЗА НЕУДОБСТВО ЧТО ФИЛЬМ РАЗБИТ НА НЕСКОЛЬКО ЧАСТЕЙ И НУЖНО СНАЧАЛА СКАЧАТЬ ВСЕ ЧАСТИ А ПОТОМ ПЕРЕМЕСТИТЬ НА ФЛЕШКУ И СМОТРЕТЬ НА ВСТРОЕННОМ ПЛЕЕРЕ ТЕЛЕВИЗОРА ИЛИ МОЖНО СМОТРЕТЬ НА КОМПЕ =НО ЕСТЬ И + ТАК КАК ЕСЛИ ЗАЛИТЬ НА ТОРРЕНТ ТО ПРИШЛОСЬ ИМЕТЬ ЗАВИСИМОСТЬ ОТ КОЛИЧЕСТВА ЛЮДЕЙ ИМЕЮЩИХ ФИЛЬМ......А В НАШЕМ ВАРИАНТЕ РЕАЛЬНО СКАЧАТЬ НА ПРЕДЕЛЬНОЙ СКОРОСТИ БЕЗ ОЧЕРЕДИ И БЕСПЛАТНО

ПЕРЕХОД СКАЧАТЬ 1 ЧАСТЬ ФИЛЬМА

Доступно только для пользователей

Доступно только для пользователей

Доступно только для пользователей

Доступно только для пользователей

Доступно только для пользователей

Доступно только для пользователей

Доступно только для пользователей


3Д СКРИНШОТЫ



Прикрепления: 5775728.jpg(257Kb) · 2793014.png(16Kb) · 6519930.jpg(922Kb) · 1808277.jpg(1083Kb) · 7133166.jpg(953Kb)


Сообщение отредактировал murrshako - Воскресенье, 22.03.2015, 15:26
 
murrshakoДата: Вторник, 13.01.2015, 15:19 | Сообщение # 2
Группа: Администраторы
Сообщений: 2041
Репутация: 55
Статус: Offline


Черная Кошка, Белый Кот / Crna Macka, Beli Macor (1998) DVD5
ГОРИЗОНТАЛЬНАЯ анаморфная СТЕРЕОПАРА без черных полос во весь экран

ВОСПРОИЗВОДИТСЯ НА ВСТРОЕННОМ ПЛЕРЕ ТЕЛЕВИЗОРА




Информация о фильме
Название: Черная Кошка, Белый Кот
Оригинальное название: Crna Macka, Beli Macor
Год выхода: 1998
Жанр: Комедия, мелодрама
Режиссер: Эмир Кустурица
В ролях: Сабри Сулеймани, Любица Аджович, Бранка Катич, Срдан Тодорович, Байрам Севердзан, Забит Мемедов, Ясар Дестани, Стоян Сотиров, Предраг-Пепи Лакович, Предраг-Мики Манойлович, Флориян Айдини

О фильме: Два цыганских барона, сколотившие свои состояния на темных делишках, тем не менее умудрились сохранить взаимное уважение и искреннюю дружбу, хотя и не виделись 25 лет. И теперь, разменяв девятый десяток, им приходится расхлебывать кашу, которую заварили их многочисленные потомки.
Миллионные сделки с мафией, погони за убежавшими невестами, безумные цыганские праздники и дерзкие ограбления, пламенная любовь и хладнокровный обман — все это снова вовлекает их в стремительный круговорот жизни. Такая сумасшедшая гонка и мертвого может поднять из могилы…

Страна: Германия, США, Франция, Греция, Австрия, Югославия
Студия: France 2 Cinema / CANAL + / Ciby 2000 / Pandora Film / Komuna
Продолжительность: 02:03:37
Перевод: профессиональный (многоголосый, закадровый)

............................................................................................................................................ ..................

ФИЛЬМЫ\VTS_02_1.mp4
Format : MPEG-4
Format profile : Base Media
Codec ID : isom
File size : 834 MiB
Duration : 27mn 32s
Overall bit rate : 4 234 Kbps
Writing application : Lavf54.59.106

Video
ID : 1
Format : AVC
Format/Info : Advanced Video Codec
Format profile : Baseline@L4.0
Format settings, CABAC : No
Format settings, ReFrames : 2 frames
Codec ID : avc1
Codec ID/Info : Advanced Video Coding
Duration : 27mn 32s
Bit rate : 4 000 Kbps
Width : 1 920 pixels
Height : 1 080 pixels
Display aspect ratio : 16:9
Frame rate mode : Constant
Frame rate : 29.970 fps
Color space : YUV
Chroma subsampling : 4:2:0
Bit depth : 8 bits
Scan type : Progressive
Bits/(Pixel*Frame) : 0.064
Stream size : 782 MiB (94%)
Writing library : x264 core 135
Encoding settings : cabac=0 / ref=2 / deblock=1:0:0 /
Audio
ID : 2
Format : AAC
Format/Info : Advanced Audio Codec
Format profile : LC
Codec ID : 40
Duration : 27mn 32s
Duration_LastFrame : -21ms
Bit rate mode : Constant
Bit rate : 256 Kbps
Channel(s) : 6 channels
Channel positions : Front: L C R, Side: L R, LFE
Sampling rate : 44.1 KHz
Compression mode : Lossy
Stream size : 50.4 MiB (6%)

Я ПРИНОШУ СВОИ ИЗВИНЕНИЯ ЗА НЕУДОБСТВО ЧТО ФИЛЬМ РАЗБИТ НА НЕСКОЛЬКО ЧАСТЕЙ И НУЖНО СНАЧАЛА СКАЧАТЬ ВСЕ ЧАСТИ А ПОТОМ ПЕРЕМЕСТИТЬ НА ФЛЕШКУ И СМОТРЕТЬ НА ВСТРОЕННОМ ПЛЕЕРЕ ТЕЛЕВИЗОРА ИЛИ МОЖНО СМОТРЕТЬ НА КОМПЕ =НО ЕСТЬ И + ТАК КАК ЕСЛИ ЗАЛИТЬ НА ТОРРЕНТ ТО ПРИШЛОСЬ ИМЕТЬ ЗАВИСИМОСТЬ ОТ КОЛИЧЕСТВА ЛЮДЕЙ ИМЕЮЩИХ ФИЛЬМ......А В НАШЕМ ВАРИАНТЕ РЕАЛЬНО СКАЧАТЬ НА ПРЕДЕЛЬНОЙ СКОРОСТИ БЕЗ ОЧЕРЕДИ И БЕСПЛАТНО

Доступно только для пользователей

Доступно только для пользователей

Доступно только для пользователей

Доступно только для пользователей

Доступно только для пользователей


СКРИНШОТЫ



Прикрепления: 0675723.jpg(116Kb) · 4951289.jpg(154Kb) · 7639694.jpg(419Kb) · 7824820.jpg(588Kb) · 2655014.jpg(942Kb)


Сообщение отредактировал murrshako - Воскресенье, 18.01.2015, 16:52
 
murrshakoДата: Воскресенье, 18.01.2015, 16:12 | Сообщение # 3
Группа: Администраторы
Сообщений: 2041
Репутация: 55
Статус: Offline


Время цыган / Дом для повешения / Time Of The Gypsies / Dom za vesanje 1988год

ГОРИЗОНТАЛЬНАЯ анаморфная СТЕРЕОПАРА без черных полос во весь экран

ВОСПРОИЗВОДИТСЯ НА ВСТРОЕННОМ ПЛЕРЕ ТЕЛЕВИЗОРА


• «Золотой жук» за лучший иностранный фильм в Швеции.

• Сезар, 1990 год
Номинации (1):
— Лучший фильм на иностранном языке

• Каннский кинофестиваль, 1989 год
Победитель (1):
— Лучший режиссер (Эмир Кустурица)

Номинации (1):
— Золотая пальмовая ветвь

• Европейская киноакадемия, 1989 год
Номинации (1):
— Лучшая мужская роль (Давор Дуймович)

Год выпуска: 1988
Страна: Югославия
Жанр: Драма
Продолжительность: 2:16:18
Перевод: Профессиональный (полное дублирование)
Русские субтитры: нет

Режиссер: Эмир Кустурица / Emir Kusturica

В ролях: Давор Дуймович, Бора Тодорович, Любица Аджович,
Хусния Хашимович, Синоличка Тройкова, Забит Мехмедов, Эльвира Сали

Описание:
Удостоенный приза за режиссуру в Каннах, фильм является безусловным шедевром кино, обо всех достоинствах которого в объеме аннотации рассказать невозможно. Перхана, обладающего способностью взглядом передвигать предметы, воспитывает бабушка, сама наделенная даром лечить людей без лекарств. Есть у Перхана еще дядя, безнадежный игрок, не знающий, что такое удача, и сестра-калека. Появляется у Перхана и любовь, но родители не отдают за него дочь - Перхан беден, живет честно, а у таких деньги не заводятся. И он отправляется в Италию, чтобы по дороге отдать сестру в больницу в Люблянах, заработать денег, построить дом и жениться на любимой. А зарабатывают цыгане, продавая детей, воруя, нищенствуя. Перхан ломает в себе чистый стержень, "поймав самого себя на лжи", он никому не верит, и золото течет к нему в руки, но бабушка не рада такому богатству. Перхан не верит, что девушка, ради которой он уехал на заработки, носит его ребенка. Она рожает ему сына, но сама умирает...
Эмир Кустурица превращает эту историю не просто в народную, «цыганскую драму», а в своего рода мифологическое сказание, метафизическую притчу, балансируя на грани между вымыслом и реальностью, мечтой и действительностью, бытовым и ирреальным миром, жизнью и смертью, проявляя себя как поэт и философ, воспаряющий от грязи и пороков к грезам о горнем крае...

Доп. информация:
Переводы:
1. Дубляж к/ст. М.Горького, 1991
Полная версия советского дубляжа только в DVDRip

Overall bit rate mode : Variable
Overall bit rate : 8 044 Kbps
Writing application : Lavf54.59.106

Video
ID : 1
Format : AVC
Format/Info : Advanced Video Codec
Format profile : Baseline@L4.0
Format settings, CABAC : No
Format settings, ReFrames : 2 frames
Codec ID : avc1
Codec ID/Info : Advanced Video Coding
Duration : 19mn 5s
Bit rate : 8 000 Kbps
Width : 1 920 pixels
Height : 1 080 pixels
Display aspect ratio : 16:9
Frame rate mode : Constant
Frame rate : 29.970 fps
Color space : YUV
Chroma subsampling : 4:2:0
Bit depth : 8 bits
Scan type : Progressive
Bits/(Pixel*Frame) : 0.129

Audio
ID : 2
Format : AAC
Format/Info : Advanced Audio Codec
Format profile : LC
Codec ID : 40
Duration : 19mn 5s
Duration_LastFrame : -1ms
Bit rate mode : Variable
Bit rate : 76.2 Kbps
Maximum bit rate : 192 Kbps
Channel(s) : 6 channels
Channel positions : Front: L C R, Side: L R, LFE
Sampling rate : 44.1 KHz
Compression mode : Lossy
Stream size : 10.4 MiB (1%)

Я ПРИНОШУ СВОИ ИЗВИНЕНИЯ ЗА НЕУДОБСТВО ЧТО ФИЛЬМ РАЗБИТ НА НЕСКОЛЬКО ЧАСТЕЙ И НУЖНО СНАЧАЛА СКАЧАТЬ ВСЕ ЧАСТИ А ПОТОМ ПЕРЕМЕСТИТЬ НА ФЛЕШКУ И СМОТРЕТЬ НА ВСТРОЕННОМ ПЛЕЕРЕ ТЕЛЕВИЗОРА ИЛИ МОЖНО СМОТРЕТЬ НА КОМПЕ =НО ЕСТЬ И + ТАК КАК ЕСЛИ ЗАЛИТЬ НА ТОРРЕНТ ТО ПРИШЛОСЬ ИМЕТЬ ЗАВИСИМОСТЬ ОТ КОЛИЧЕСТВА ЛЮДЕЙ ИМЕЮЩИХ ФИЛЬМ......А В НАШЕМ ВАРИАНТЕ РЕАЛЬНО СКАЧАТЬ НА ПРЕДЕЛЬНОЙ СКОРОСТИ БЕЗ ОЧЕРЕДИ И БЕСПЛАТНО

Доступно только для пользователей

Доступно только для пользователей

Доступно только для пользователей

Доступно только для пользователей

Доступно только для пользователей

Доступно только для пользователей

Доступно только для пользователей

Доступно только для пользователей

СКРИНШОТЫ








Прикрепления: 0551263.jpg(860Kb) · 1089343.jpg(793Kb) · 9577368.jpg(702Kb) · 7348292.jpg(738Kb) · 4671933.jpg(841Kb)


Сообщение отредактировал murrshako - Воскресенье, 18.01.2015, 16:17
 
murrshakoДата: Среда, 18.11.2015, 19:41 | Сообщение # 4
Группа: Администраторы
Сообщений: 2041
Репутация: 55
Статус: Offline

СМОТРИТЕ...РОМАЛЭ..ПОЛНУЮ * Телеверсию ....имеет хронометраж 270 минут.
фильма «Время цыган» в 3D В КАЧЕСТВЕ 1280P---1080P ...обработка программой

Sony Vegas Pro 13.0



Sony Vegas Pro 13.0 Suite Upgrade from Movie Studio


Vegas Pro 13 Suite – максимально полная коллекция программных средств для редактирования видео и аудио, глубокой обработки видеоэффектов, полной настройки рабочих процессов и авторской записи дисков. Vegas Pro 13 включает ключевое приложение и массу дополнительных инструментов от Sony Creative Software и ключевых партнёров позволяют воплотить ваше творческое видение в реальность проще, чем когда бы то ни было.

Основные функции Vegas Pro 13 Suite

инновационные инструменты;
Редактируйте материалы SD, HD, 2K и 4K при помощи функции перетаскивания (drag-and-drop) или в традиционном 3- и 4-этапном режимах. Интерфейс Vegas Pro 13 предоставляет впечатляющий ассортимент инновационных инструментов и вдумчивых методов с полностью настраиваемым рабочим пространством для выполнения широкого ряда производственных задач. Встраивайте проекты Vegas Pro во временную шкалу, настраивайте и сохраняйте команды, вводимые с клавиатуры, а также используйте скрипты для автоматизации периодически повторяющихся задач.

HitFilm 2 Ultimate;
Vegas Pro 13 Suite включает HitFilm 2 Ultimate – полнофункциональное приложение видео-эффектов, включающее симуляторы частиц, анимацию частиц под музыку, генераторы динамического разрушения, ошеломительные световые эффекты – огни и вспышки, набор средств для цветокоррекции и градиента, и многое другое. Создавайте поразительные композиции, от многослойных изображений с зелёным экраном до последовательностей CG с детальными 3D-моделями.

Доступно только для пользователей


Название: Время цыган (Дом для повешения)
Оригинальное название: Time of the Gypsies (Dom za vesanje)
Год выпуска: 1989
Жанр: Драма
Выпущено: Великобритания, Италия, Югославия
Режиссер: Эмир Кустурица
В ролях: Давор Дуймович, Бора Тодорович, Любица Аджович, Хасиния Хашимович, Синоличка Тройкова, Предраг Лакович
О фильме: Подросток Перхан хочет отвезти больную сестру в больницу в Любляну. Ему вызывается помочь Ахмед, авантюрист и проходимец. Вскоре Перхан узнает, что Ахмед занят эксплуатацией вывезенных из Югославии детей на воровстве и попрошайничестве, а также склонен к сутенерству и сводничеству. Перхан тоже сколачивает состояние, а вернувшись в деревню, женится на возлюбленной Азре, которая вскоре умирает при родах. Перхан решает отомстить подлому Ахмеду, так и не поместившему Дацу в больницу.
ТехданныеСкриншоты
Качество: DVD
Видео: PAL 4:3 (720x576) VBR
Аудио: Русский (Dolby AC3, 6 ch), сербский (Dolby AC3, 6 ch)
Размер: 11.79 ГБ
Продолжительность: 5 х ~ 00:54:00
Перевод: Профессиональный двухголосый
...........................................................................................................
СВЕДЕНИЯ О РЕЖИССЕРЕ



ЗНАЕТЕ ЛИ ВЫ ..РОМАЛЭ...ЧТО....


СКОРО....СМОТРИТЕ 3D ОБРАБОТКУ Sony Vegas Pro 13.0 Suite Upgrade from Movie Studio
Прикрепления: 8870562.jpg(354Kb)
 
ЦЫГАНЕ=ROMA=Cingaris=GYPSIES=CIGANOS=吉普賽人=ZINGARI=जिप्सФорум » ЦЫГАНСКИЙ РАЗДЕЛ » ФИЛЬМЫ НА ЦЫГАНСКУЮ ТЕМАТИКУ FULL HD 720P 60 FPS » СБОРНИК 3D ВЕРСИЙ НА ЦЫГАНСКУЮ ТЕМАТИКУ (конвертация 2D в 3D Aiseesoft 3D Converter)
Страница 1 из 11
Поиск:

тест скорости интернета
| Copyright MyCorp © 2017 | |