благодарю!!ромалэ
ЯндексЯндекс. ДеньгиХочу такую же кнопку

http://murrshako-rom.ucoz.ru$724.67$724.67Сколько стоит ваш?

Черная Кошка, Белый Кот / Crna Macka, Beli Macor (1998) - ЦЫГАНЕ=ROMA=Cingaris=GYPSIES=CIGANOS=吉普賽人=ZINGARI=जिप्सФорум
RADIO

GIPSY VOICE
radio

ЦЫГАНСКИЕ СТРУНЫ
радио

Понедельник, 21.08.2017, 03:39
Главная
Регистрация
Вход
Цыганский портал!!!приветствую ромалэ!!зачан!!
Приветствую Вас Гость | RSS
[ Новые сообщения · Участники · Правила форума · Поиск · RSS ]
Страница 1 из 11
ЦЫГАНЕ=ROMA=Cingaris=GYPSIES=CIGANOS=吉普賽人=ZINGARI=जिप्सФорум » ЦЫГАНСКИЙ РАЗДЕЛ » ФИЛЬМЫ НА ЦЫГАНСКУЮ ТЕМАТИКУ FULL HD 720P 60 FPS » Черная Кошка, Белый Кот / Crna Macka, Beli Macor (1998) (Жанр: Комедия, мелодрама Режиссер: Эмир Кустурица)
Черная Кошка, Белый Кот / Crna Macka, Beli Macor (1998)
murrshakoДата: Среда, 14.01.2015, 13:52 | Сообщение # 1
Группа: Администраторы
Сообщений: 2053
Репутация: 55
Статус: Offline


Черная Кошка, Белый Кот / Crna Macka, Beli Macor (1998) DVD5




Информация о фильме
Название: Черная Кошка, Белый Кот
Оригинальное название: Crna Macka, Beli Macor
Год выхода: 1998
Жанр: Комедия, мелодрама
Режиссер: Эмир Кустурица
В ролях: Сабри Сулеймани, Любица Аджович, Бранка Катич, Срдан Тодорович, Байрам Севердзан, Забит Мемедов, Ясар Дестани, Стоян Сотиров, Предраг-Пепи Лакович, Предраг-Мики Манойлович, Флориян Айдини

О фильме: Два цыганских барона, сколотившие свои состояния на темных делишках, тем не менее умудрились сохранить взаимное уважение и искреннюю дружбу, хотя и не виделись 25 лет. И теперь, разменяв девятый десяток, им приходится расхлебывать кашу, которую заварили их многочисленные потомки.
Миллионные сделки с мафией, погони за убежавшими невестами, безумные цыганские праздники и дерзкие ограбления, пламенная любовь и хладнокровный обман — все это снова вовлекает их в стремительный круговорот жизни. Такая сумасшедшая гонка и мертвого может поднять из могилы…



Страна: Германия, США, Франция, Греция, Австрия, Югославия
Студия: France 2 Cinema / CANAL + / Ciby 2000 / Pandora Film / Komuna
Продолжительность: 02:03:37
Перевод: профессиональный (многоголосый, закадровый)

СМОТРЕТЬ ФИЛЬМ В КАЧЕСТВЕ 1280-720Р ВО ВЕСЬ ЭКРАН

Доступно только для пользователей

АЛЬТЕРНАТИВА

Доступно только для пользователей





Файл
Кодек: MPEG2
Качество: DVD5
Видео: PAL 16:9 (720x576) VBR, Auto Letterboxed
Звук:
Russian (Dolby AC3, 6 ch) Русский Dolby Digital 5.1 (48kHz; 384Kbps) [rus]
Serbian (Dolby AC3, 6 ch) Сербский Dolby Digital 5.1 (48kHz; 384Kbps) [srb]
Субтитры: Русские

Раздают 16
Качают 1
Сидер замечен 14-01-2015 13:19:53 (20 минут назад)
Добавлен 08-03-2011 16:21:26 (47 месяцев назад)
Размер 4.38 GB (4699734016 Bytes)

Доступно только для пользователей

Прикрепления: 6015019.jpg(58Kb)
 
murrshakoДата: Среда, 14.01.2015, 16:13 | Сообщение # 2
Группа: Администраторы
Сообщений: 2053
Репутация: 55
Статус: Offline
CHERNAJA KOWKA-BELIY KOT (KUSTURIZA)1 serija.mp4
Format : MPEG-4
Format profile : Base Media
Codec ID : isom
File size : 1.72 GiB
Duration : 1h 24mn
Overall bit rate : 2 896 Kbps
Encoded date : UTC 2014-10-07 11:45:38
Tagged date : UTC 2014-10-07 11:45:38
Writing application : Lavf54.63.104

Video
ID : 1
Format : AVC
Format/Info : Advanced Video Codec
Format profile : Main@L3.2
Format settings, CABAC : Yes
Format settings, ReFrames : 1 frame
Codec ID : avc1
Codec ID/Info : Advanced Video Coding
Duration : 1h 24mn
Bit rate : 2 500 Kbps
Width : 1 280 pixels
Height : 720 pixels
Display aspect ratio : 16:9
Frame rate mode : Constant
Frame rate : 60.000 fps
Color space : YUV
Chroma subsampling : 4:2:0
Bit depth : 8 bits
Scan type : Progressive
Bits/(Pixel*Frame) : 0.045
Stream size : 1.48 GiB (86%)
Writing library : x264 core 129
Encoding settings : cabac=1 / ref=1 / deblock=1:0:

Audio
ID : 2
Format : AAC
Format/Info : Advanced Audio Codec
Format profile : LC
Codec ID : 40
Duration : 1h 24mn
Duration_FirstFrame : 64ms
Bit rate mode : Constant
Bit rate : 384 Kbps
Channel(s) : 6 channels
Channel positions : Front: L C R, Side: L R, LFE
Sampling rate : 48.0 KHz
Compression mode : Lossy
Stream size : 233 MiB (13%)
Encoded date : UTC 2014-10-07 11:45:38
Tagged date : UTC 2014-10-07 11:45:38

СКАЧАТЬ ФИЛЬМ В КАЧЕСТВЕ 1280-720Р СО ЗВУКОМ 5.1 И 60 FPS ВО ВЕСЬ ЭКРАН .БЕЗ ЧЕРНЫХ ПОЛОС

ПЕРЕХОД СКАЧАТЬ 1 ЧАСТЬ ФИЛЬМА

Доступно только для пользователей

ПЕРЕХОД СКАЧАТЬ 2 ЧАСТЬ ФИЛЬМА

Доступно только для пользователей

СКРИНШОТЫ




Прикрепления: 9252574.jpg(505Kb) · 2550063.jpg(454Kb) · 2817932.jpg(410Kb) · 0986237.jpg(541Kb) · 0019833.jpg(437Kb)


Сообщение отредактировал murrshako - Четверг, 15.01.2015, 05:57
 
murrshakoДата: Среда, 14.01.2015, 17:54 | Сообщение # 3
Группа: Администраторы
Сообщений: 2053
Репутация: 55
Статус: Offline
150\CHERNAJA KOWKA-BELIY KOT (KUSTURIZA)2 serija.mp4
Format : MPEG-4
Format profile : Base Media
Codec ID : isom
File size : 1.40 GiB
Duration : 39mn 38s
Overall bit rate : 5 071 Kbps
Encoded date : UTC 2014-10-07 11:45:38
Tagged date : UTC 2014-10-07 11:45:38
Writing application : Lavf54.63.104

Video
ID : 1
Format : AVC
Format/Info : Advanced Video Codec
Format profile : Main@L3.2
Format settings, CABAC : Yes
Format settings, ReFrames : 1 frame
Codec ID : avc1
Codec ID/Info : Advanced Video Coding
Duration : 39mn 38s
Bit rate : 4 644 Kbps
Width : 1 280 pixels
Height : 720 pixels
Display aspect ratio : 16:9
Frame rate mode : Constant
Frame rate : 60.000 fps
Color space : YUV
Chroma subsampling : 4:2:0
Bit depth : 8 bits
Scan type : Progressive
Bits/(Pixel*Frame) : 0.084
Stream size : 1.30 GiB (92%)
Writing library : x264 core 129
Encoding

Encoded date : UTC 2014-10-07 11:45:38
Tagged date : UTC 2014-10-07 11:45:38

Audio
ID : 2
Format : AAC
Format/Info : Advanced Audio Codec
Format profile : LC
Codec ID : 40
Duration : 39mn 38s
Duration_FirstFrame : 64ms
Bit rate mode : Constant
Bit rate : 384 Kbps
Channel(s) : 6 channels
Channel positions : Front: L C R, Side: L R, LFE
Sampling rate : 48.0 KHz
Compression mode : Lossy
Stream size : 109 MiB (8%)
Encoded date : UTC 2014-10-07 11:45:38
Tagged date : UTC 2014-10-07 11:45:38

СКОРО СКАЧАТЬ 2 ЧАСТЬ ФИЛЬМА

Доступно только для пользователей
СКРИНШОТЫ






Прикрепления: 2597231.jpg(569Kb) · 2759531.jpg(524Kb) · 5215701.jpg(493Kb) · 4388460.jpg(533Kb) · 0155725.jpg(592Kb)


Сообщение отредактировал murrshako - Четверг, 15.01.2015, 05:55
 
murrshakoДата: Воскресенье, 18.01.2015, 16:47 | Сообщение # 4
Группа: Администраторы
Сообщений: 2053
Репутация: 55
Статус: Offline


Черная Кошка, Белый Кот / Crna Macka, Beli Macor (1998) DVD5
ГОРИЗОНТАЛЬНАЯ анаморфная СТЕРЕОПАРА без черных полос во весь экран

ВОСПРОИЗВОДИТСЯ НА ВСТРОЕННОМ ПЛЕРЕ ТЕЛЕВИЗОРА




Информация о фильме
Название: Черная Кошка, Белый Кот
Оригинальное название: Crna Macka, Beli Macor
Год выхода: 1998
Жанр: Комедия, мелодрама
Режиссер: Эмир Кустурица
В ролях: Сабри Сулеймани, Любица Аджович, Бранка Катич, Срдан Тодорович, Байрам Севердзан, Забит Мемедов, Ясар Дестани, Стоян Сотиров, Предраг-Пепи Лакович, Предраг-Мики Манойлович, Флориян Айдини

О фильме: Два цыганских барона, сколотившие свои состояния на темных делишках, тем не менее умудрились сохранить взаимное уважение и искреннюю дружбу, хотя и не виделись 25 лет. И теперь, разменяв девятый десяток, им приходится расхлебывать кашу, которую заварили их многочисленные потомки.
Миллионные сделки с мафией, погони за убежавшими невестами, безумные цыганские праздники и дерзкие ограбления, пламенная любовь и хладнокровный обман — все это снова вовлекает их в стремительный круговорот жизни. Такая сумасшедшая гонка и мертвого может поднять из могилы…

Страна: Германия, США, Франция, Греция, Австрия, Югославия
Студия: France 2 Cinema / CANAL + / Ciby 2000 / Pandora Film / Komuna
Продолжительность: 02:03:37
Перевод: профессиональный (многоголосый, закадровый)

............................................................................................................................................ ..................

ФИЛЬМЫ\VTS_02_1.mp4
Format : MPEG-4
Format profile : Base Media
Codec ID : isom
File size : 834 MiB
Duration : 27mn 32s
Overall bit rate : 4 234 Kbps
Writing application : Lavf54.59.106

Video
ID : 1
Format : AVC
Format/Info : Advanced Video Codec
Format profile : Baseline@L4.0
Format settings, CABAC : No
Format settings, ReFrames : 2 frames
Codec ID : avc1
Codec ID/Info : Advanced Video Coding
Duration : 27mn 32s
Bit rate : 4 000 Kbps
Width : 1 920 pixels
Height : 1 080 pixels
Display aspect ratio : 16:9
Frame rate mode : Constant
Frame rate : 29.970 fps
Color space : YUV
Chroma subsampling : 4:2:0
Bit depth : 8 bits
Scan type : Progressive
Bits/(Pixel*Frame) : 0.064
Stream size : 782 MiB (94%)
Writing library : x264 core 135
Encoding settings : cabac=0 / ref=2 / deblock=1:0:0 /
Audio
ID : 2
Format : AAC
Format/Info : Advanced Audio Codec
Format profile : LC
Codec ID : 40
Duration : 27mn 32s
Duration_LastFrame : -21ms
Bit rate mode : Constant
Bit rate : 256 Kbps
Channel(s) : 6 channels
Channel positions : Front: L C R, Side: L R, LFE
Sampling rate : 44.1 KHz
Compression mode : Lossy
Stream size : 50.4 MiB (6%)

Я ПРИНОШУ СВОИ ИЗВИНЕНИЯ ЗА НЕУДОБСТВО ЧТО ФИЛЬМ РАЗБИТ НА НЕСКОЛЬКО ЧАСТЕЙ И НУЖНО СНАЧАЛА СКАЧАТЬ ВСЕ ЧАСТИ А ПОТОМ ПЕРЕМЕСТИТЬ НА ФЛЕШКУ И СМОТРЕТЬ НА ВСТРОЕННОМ ПЛЕЕРЕ ТЕЛЕВИЗОРА ИЛИ МОЖНО СМОТРЕТЬ НА КОМПЕ =НО ЕСТЬ И + ТАК КАК ЕСЛИ ЗАЛИТЬ НА ТОРРЕНТ ТО ПРИШЛОСЬ ИМЕТЬ ЗАВИСИМОСТЬ ОТ КОЛИЧЕСТВА ЛЮДЕЙ ИМЕЮЩИХ ФИЛЬМ......А В НАШЕМ ВАРИАНТЕ РЕАЛЬНО СКАЧАТЬ НА ПРЕДЕЛЬНОЙ СКОРОСТИ БЕЗ ОЧЕРЕДИ И БЕСПЛАТНО

Доступно только для пользователей

Доступно только для пользователей

Доступно только для пользователей

Доступно только для пользователей

Доступно только для пользователей
СКРИНШОТЫ






Прикрепления: 6601949.jpg(34Kb)


Сообщение отредактировал murrshako - Воскресенье, 18.01.2015, 16:51
 
ЦЫГАНЕ=ROMA=Cingaris=GYPSIES=CIGANOS=吉普賽人=ZINGARI=जिप्सФорум » ЦЫГАНСКИЙ РАЗДЕЛ » ФИЛЬМЫ НА ЦЫГАНСКУЮ ТЕМАТИКУ FULL HD 720P 60 FPS » Черная Кошка, Белый Кот / Crna Macka, Beli Macor (1998) (Жанр: Комедия, мелодрама Режиссер: Эмир Кустурица)
Страница 1 из 11
Поиск:

тест скорости интернета
| Copyright MyCorp © 2017 | |