благодарю!!ромалэ
ЯндексЯндекс. ДеньгиХочу такую же кнопку

http://murrshako-rom.ucoz.ru$724.67$724.67Сколько стоит ваш?

Прекрасная история / La belle histoire (1992) - ЦЫГАНЕ=ROMA=Cingaris=GYPSIES=CIGANOS=吉普賽人=ZINGARI=जिप्सФорум
RADIO

GIPSY VOICE
radio

ЦЫГАНСКИЕ СТРУНЫ
радио

Воскресенье, 17.12.2017, 22:29
Главная
Регистрация
Вход
Цыганский портал!!!приветствую ромалэ!!зачан!!
Приветствую Вас Гость | RSS
[ Новые сообщения · Участники · Правила форума · Поиск · RSS ]
Страница 1 из 11
ЦЫГАНЕ=ROMA=Cingaris=GYPSIES=CIGANOS=吉普賽人=ZINGARI=जिप्सФорум » ЦЫГАНСКИЙ РАЗДЕЛ » ФИЛЬМЫ НА ЦЫГАНСКУЮ ТЕМАТИКУ FULL HD 720P 60 FPS » Прекрасная история / La belle histoire (1992) (Жанр: Фэнтези, драма, мелодрама, приключения Режиссер: Клод)
Прекрасная история / La belle histoire (1992)
murrshakoДата: Четверг, 25.06.2015, 13:55 | Сообщение # 1
Группа: Администраторы
Сообщений: 2053
Репутация: 55
Статус: Offline


Название: Прекрасная история
Оригинальное название: La belle histoire
Год выхода: 1992


Информация о фильме
Название: Прекрасная история
Оригинальное название: La belle histoire
Год выхода: 1992
Жанр: Фэнтези, драма, мелодрама, приключения
Режиссер: Клод Лелуш
В ролях: Жерар Ланвен, Беатрис Даль, Венсан Линдон, Мари-Софи Л., Патрик Шенэ, Жак Гамблен, Жерар Дармон, Анемон, Амиду, Пьер Вернье

О фильме:
Страстная, исполненная тайн история любви… Лелуш собирает в своей картине необычных героев: цыгана по имени Исус, мечтающего стать тореадором и попадающего в тюрьму; девушку Марию, потерявшую работу и познавшую чудо перерождения, и красавицу Одону, которую настойчиво преследует парижский полицейский.
Все они ищут любви и лучшей жизни, переживают потери и личные драмы. В современные события вплетены библейские сюжеты и история средних веков, где герои принимали самое непосредственное участие. Они встречались в прошлых жизнях, а сейчас они лишь ищут друг друга, чтобы любить и быть вместе с теми, кто живет рядом уже тысячи лет.
Эта картина — об обыкновенной жизни, которая является самой загадочной и самой удивительной сказкой, которую люди не хотят видеть. Рассказать содержание этого прекрасного фильма невозможно, его нужно увидеть собственными глазами

СКОРО БОНУС ТОЛЬКО ЗАРЕГИСТРИРОВАННЫМ ЛИЦАМ ЦЫГАНСКОЙ НАЦИОНАЛЬНОСТИ И НЕ ОЧЕНЬ
ПРОСМОТР ФИЛЬМА В КАЧЕСТВЕ FULL HD 1280P-720Р ВО ВЕСЬ ЭКРАН БЕЗ ЧЕРНЫХ ПОЛОС 50 FPS
открыт для примера
+ДЛЯ ОЦЕНКИ КАЧЕСТВА ЭПИЗОД ИЗ ФИЛЬМА


.................................................................................
СМОТРЕТЬ 1-Ю ЧАСТЬ ФИЛЬМА В КАЧЕСТВЕ 1280-720Р 60FPS БЕЗ ЧЕРНЫХ ПОЛОС

Доступно только для пользователей

СМОТРЕТЬ 2-Ю ЧАСТЬ ФИЛЬМА
Доступно только для пользователей

ПЕРЕХОД СМОТРЕТЬ В КАЧЕСТВЕ 720Р БЕЗ ЧЕРНЫХ ПОЛОС 60FPS

Доступно только для пользователей



.
Прикрепления: 0538524.jpg(407Kb)


Сообщение отредактировал murrshako - Среда, 29.06.2016, 16:31
 
murrshakoДата: Четверг, 25.06.2015, 14:17 | Сообщение # 2
Группа: Администраторы
Сообщений: 2053
Репутация: 55
Статус: Offline


История большой любви, которая несет в себе страсть и исполнение желаний. Лепуш собрал в своем фильме множество различных героев: цыгана Исуса, который мечтает стать повелителем быков, но попадает за решетку, Марию, которая потеряла работу, но познала чудо перерождения и Одона – красавица, которую нагло преследует полицейский из Парижа.
Автор идеи: Клод Лелуш
Главные роли: Жерар Ланвен, Беатрис Даль, Венсан Линдон, Мари-Софи Л.

, Патрик Шеcнэ, Жак Гамблен, Поль Пребуа, Эли Шураки, Константин Александров, Дэнис Чэрвет

СМОТРЕТЬ ФИЛЬМ в качестве 480Р С ЧЕРНЫМИ ПОЛОСАМИ

Доступно только для пользователей

СМОТРЕТЬ ТРЕЙЛЕР ФИЛЬМА
Прикрепления: 0844823.jpg(27Kb) · 8166807.jpg(27Kb)
 
murrshakoДата: Вторник, 30.06.2015, 12:07 | Сообщение # 3
Группа: Администраторы
Сообщений: 2053
Репутация: 55
Статус: Offline


50\murrshako136=1 часть=.mp4
Format : MPEG-4
Format profile : Base Media
Codec ID : isom
File size : 1.71 GiB
Duration : 1h 41mn
Overall bit rate mode : Variable
Overall bit rate : 2 416 Kbps
Encoded date : UTC 2015-06-24 09:26:36
Tagged date : UTC 2015-06-24 09:26:36

Video
ID : 1
Format : AVC
Format/Info : Advanced Video Codec
Format profile : Main@L3.2
Format settings, CABAC : Yes
Format settings, ReFrames : 1 frame
Codec ID : avc1
Codec ID/Info : Advanced Video Coding
Duration : 1h 41mn
Bit rate : 2 206 Kbps
Width : 1 280 pixels
Height : 720 pixels
Display aspect ratio : 16:9
Frame rate mode : Constant
Frame rate : 60.000 fps
Color space : YUV
Chroma subsampling : 4:2:0
Bit depth : 8 bits
Scan type : Progressive
Bits/(Pixel*Frame) : 0.040
Stream size : 1.56 GiB (91%)
Writing library : x264 core 129

Encoded date : UTC 2014-10-07 11:45:38
Tagged date : UTC 2015-06-24 09:32:31

Audio
ID : 2
Format : AAC
Format/Info : Advanced Audio Codec
Format profile : LC
Codec ID : 40
Duration : 1h 41mn
Duration_FirstFrame : 64ms
Bit rate mode : Variable
Bit rate : 218 Kbps
Maximum bit rate : 1 152 Kbps
Channel count : 2 channels
Original Channel count : 6 channels
Channel positions : Front: L C R, Side: L R, LFE
Sampling rate : 48.0 KHz
Compression mode : Lossy
Stream size : 157 MiB (9%)
Encoded date : UTC 2014-10-07 11:45:38
Tagged date : UTC 2015-06-24 09:32:31

Доступно только для пользователей
50\murrshako136=2 часть=.mp4
Format : MPEG-4
Format profile : Base Media
Codec ID : isom
File size : 1.75 GiB
Duration : 1h 41mn
Overall bit rate mode : Variable
Overall bit rate : 2 470 Kbps
Encoded date : UTC 2015-06-24 09:35:42
Tagged date : UTC 2015-06-24 09:35:42

Video
ID : 1
Format : AVC
Format/Info : Advanced Video Codec
Format profile : Main@L3.2
Format settings, CABAC : Yes
Format settings, ReFrames : 1 frame
Codec ID : avc1
Codec ID/Info : Advanced Video Coding
Duration : 1h 41mn
Bit rate : 2 248 Kbps
Width : 1 280 pixels
Height : 720 pixels
Display aspect ratio : 16:9
Frame rate mode : Constant
Frame rate : 60.000 fps
Color space : YUV
Chroma subsampling : 4:2:0
Bit depth : 8 bits
Scan type : Progressive
Bits/(Pixel*Frame) : 0.041
Stream size : 1.59 GiB (91%)
Encoded date : UTC 2014-10-07 11:45:38
Tagged date : UTC 2015-06-24 09:38:47

Audio
ID : 2
Format : AAC
Format/Info : Advanced Audio Codec
Format profile : LC
Codec ID : 40
Duration : 1h 41mn
Bit rate mode : Variable
Bit rate : 218 Kbps
Maximum bit rate : 1 152 Kbps
Channel count : 2 channels
Original Channel count : 6 channels
Channel positions : Front: L C R, Side: L R, LFE
Sampling rate : 48.0 KHz
Compression mode : Lossy
Stream size : 159 MiB (9%)
Encoded date : UTC 2014-10-07 11:45:38
Tagged date : UTC 2015-06-24 09:38:47

Доступно только для пользователей



Сообщение отредактировал murrshako - Среда, 01.07.2015, 12:05
 
ЦЫГАНЕ=ROMA=Cingaris=GYPSIES=CIGANOS=吉普賽人=ZINGARI=जिप्सФорум » ЦЫГАНСКИЙ РАЗДЕЛ » ФИЛЬМЫ НА ЦЫГАНСКУЮ ТЕМАТИКУ FULL HD 720P 60 FPS » Прекрасная история / La belle histoire (1992) (Жанр: Фэнтези, драма, мелодрама, приключения Режиссер: Клод)
Страница 1 из 11
Поиск:

тест скорости интернета
| Copyright MyCorp © 2017 | |