благодарю!!ромалэ
ЯндексЯндекс. ДеньгиХочу такую же кнопку

http://murrshako-rom.ucoz.ru$724.67$724.67Сколько стоит ваш?

Бег зайца через поля / 1972г - ЦЫГАНЕ=ROMA=Cingaris=GYPSIES=CIGANOS=吉普賽人=ZINGARI=जिप्सФорум
RADIO

GIPSY VOICE
radio

ЦЫГАНСКИЕ СТРУНЫ
радио

Понедельник, 24.07.2017, 17:31
Главная
Регистрация
Вход
Цыганский портал!!!приветствую ромалэ!!зачан!!
Приветствую Вас Гость | RSS
[ Новые сообщения · Участники · Правила форума · Поиск · RSS ]
Страница 1 из 11
ЦЫГАНЕ=ROMA=Cingaris=GYPSIES=CIGANOS=吉普賽人=ZINGARI=जिप्सФорум » ЦЫГАНСКИЙ РАЗДЕЛ » ФИЛЬМЫ НА ЦЫГАНСКУЮ ТЕМАТИКУ FULL HD 720P 60 FPS » Бег зайца через поля / 1972г (Франция, Италия драма, криминал)
Бег зайца через поля / 1972г
murrshakoДата: Суббота, 27.06.2015, 13:14 | Сообщение # 1
Группа: Администраторы
Сообщений: 2051
Репутация: 55
Статус: Offline


Бег зайца через поля / La course du lièvre à travers les champs (1972)


Год выпуска: 1972
Страна: Франция, Италия

Жанр: драма, криминал
Продолжительность: 02:15:14
Перевод: Профессиональный (многоголосый, закадровый)

Режиссер: Рене Клеман
Сценарий: Дэвид Гудис, Себастьян Жапризо
Продюсер: Серж Зильберман
Оператор: Эдмон Ришар
Композитор: Франсис Лэй

В ролях: Жан-Луи Трентиньян, Роберт Райан, Леа Массари, Альдо Рэй, Жан Гавен, Тиса Фэрроу, Надин Набоков, Андре Лоуренс, Don Arrès, Луис Обер

Описание:
Бывший летчик Тони оказался не в том месте и не в то время. Его преследуют цыгане, считающие его виновным в смерти своих родных и жаждущие мести.
Убегая от них, он становится свидетелем убийства, и попадает в плен к странной банде, готовящей крупное ограбление. Он повинен в смерти одного из бандитов, но их главарь Чарли постепенно проникается к нему симпатией. Причина такой странной привязанности остается тайной до самого конца этой увлекательной и немного грустной картины.
СМОТРЕТЬ ФИЛЬМ В КАЧЕСТВЕ 480Р ВО ВЕСЬ ЭКРАН
Доступно только для пользователей

БОНУС ТОЛЬКО ЗАРЕГИСТРИРОВАННЫМ ЛИЦАМ ЦЫГАНСКОЙ НАЦИОНАЛЬНОСТИ И НЕ ОЧЕНЬ
ПРОСМОТР ФИЛЬМА В КАЧЕСТВЕ FULL HD 1280P-720Р ВО ВЕСЬ ЭКРАН БЕЗ ЧЕРНЫХ ПОЛОС 50 FPS
открыт для примера
+ДЛЯ ОЦЕНКИ КАЧЕСТВА ЭПИЗОД ИЗ ФИЛЬМА

СМОТРЕТЬ 1 ЧАСТЬ ФИЛЬМА В КАЧЕСТВЕ 1280-720Р 60FPS
Доступно только для пользователей

СМОТРЕТЬ 2 ЧАСТЬ ФИЛЬМА В КАЧЕСТВЕ 1280-720Р ВО ВЕСЬ ЭКРАН

Доступно только для пользователей

Прикрепления: 8678650.jpg(39Kb)


Сообщение отредактировал murrshako - Воскресенье, 28.06.2015, 11:41
 
murrshakoДата: Суббота, 27.06.2015, 13:37 | Сообщение # 2
Группа: Администраторы
Сообщений: 2051
Репутация: 55
Статус: Offline



50\murrshako138=1 ЧАСТЬ=.mp4
Format : MPEG-4
Format profile : Base Media
Codec ID : isom
File size : 1.13 GiB
Duration : 1h 7mn
Overall bit rate mode : Variable
Overall bit rate : 2 376 Kbps
Encoded date : UTC 2015-06-25 21:45:26
Tagged date : UTC 2015-06-25 21:45:26

Video
ID : 1
Format : AVC
Format/Info : Advanced Video Codec
Format profile : Main@L3.2
Format settings, CABAC : Yes
Format settings, ReFrames : 1 frame
Codec ID : avc1
Codec ID/Info : Advanced Video Coding
Duration : 1h 7mn
Bit rate : 2 206 Kbps
Width : 1 280 pixels
Height : 720 pixels
Display aspect ratio : 16:9
Frame rate mode : Constant
Frame rate : 60.000 fps
Color space : YUV
Chroma subsampling : 4:2:0
Bit depth : 8 bits
Scan type : Progressive
Bits/(Pixel*Frame) : 0.040
Stream size : 1.04 GiB (93%)
Writing library : x264 core 129

Encoded date : UTC 2014-10-07 11:45:38
Tagged date : UTC 2015-06-25 21:49:23

Audio
ID : 2
Format : AAC
Format/Info : Advanced Audio Codec
Format profile : LC
Codec ID : 40
Duration : 1h 7mn
Duration_FirstFrame : 64ms
Bit rate mode : Variable
Bit rate : 170 Kbps
Maximum bit rate : 1 152 Kbps
Channel count : 2 channels
Original Channel count : 6 channels
Channel positions : Front: L C R, Side: L R, LFE
Sampling rate : 48.0 KHz
Compression mode : Lossy
Stream size : 83.2 MiB (7%)
Encoded date : UTC 2014-10-07 11:45:38
Tagged date : UTC 2015-06-25 21:49:23

ПЕРЕХОД СКАЧАТЬ 1 ЧАСТЬ ФИЛЬМА В КАЧЕСТВЕ 1280-720Р ЗВУК 5.1 60 FPS

Доступно только для пользователей

50\murrshako138=2ЧАСТЬ=.mp4
Format : MPEG-4
Format profile : Base Media
Codec ID : isom
File size : 1.13 GiB
Duration : 1h 7mn
Overall bit rate mode : Variable
Overall bit rate : 2 373 Kbps
Encoded date : UTC 2015-06-25 21:51:34
Tagged date : UTC 2015-06-25 21:51:34

Video
ID : 1
Format : AVC
Format/Info : Advanced Video Codec
Format profile : Main@L3.2
Format settings, CABAC : Yes
Format settings, ReFrames : 1 frame
Codec ID : avc1
Codec ID/Info : Advanced Video Coding
Duration : 1h 7mn
Bit rate : 2 200 Kbps
Width : 1 280 pixels
Height : 720 pixels
Display aspect ratio : 16:9
Frame rate mode : Constant
Frame rate : 60.000 fps
Color space : YUV
Chroma subsampling : 4:2:0
Bit depth : 8 bits
Scan type : Progressive
Bits/(Pixel*Frame) : 0.040
Stream size : 1.04 GiB (93%)
Encoded date : UTC 2014-10-07 11:45:38
Tagged date : UTC 2015-06-25 21:54:54

Audio
ID : 2
Format : AAC
Format/Info : Advanced Audio Codec
Format profile : LC
Codec ID : 40
Duration : 1h 7mn
Bit rate mode : Variable
Bit rate : 170 Kbps
Maximum bit rate : 1 152 Kbps
Channel count : 2 channels
Original Channel count : 6 channels
Channel positions : Front: L C R, Side: L R, LFE
Sampling rate : 48.0 KHz
Compression mode : Lossy
Stream size : 82.1 MiB (7%)
Encoded date : UTC 2014-10-07 11:45:38
Tagged date : UTC 2015-06-25 21:54:54

ПЕРЕХОД СКАЧАТЬ 2 ЧАСТЬ ФИЛЬМА В КАЧЕСТВЕ 1280-720Р ЗВУК 5.1 60 FPS

Доступно только для пользователей
Прикрепления: 5138959.jpg(79Kb)


Сообщение отредактировал murrshako - Среда, 01.07.2015, 11:47
 
ЦЫГАНЕ=ROMA=Cingaris=GYPSIES=CIGANOS=吉普賽人=ZINGARI=जिप्सФорум » ЦЫГАНСКИЙ РАЗДЕЛ » ФИЛЬМЫ НА ЦЫГАНСКУЮ ТЕМАТИКУ FULL HD 720P 60 FPS » Бег зайца через поля / 1972г (Франция, Италия драма, криминал)
Страница 1 из 11
Поиск:

тест скорости интернета
| Copyright MyCorp © 2017 | |