благодарю!!ромалэ
ЯндексЯндекс. ДеньгиХочу такую же кнопку

http://murrshako-rom.ucoz.ru$724.67$724.67Сколько стоит ваш?

Гаджо (1992)Россия (Лен фильм) - ЦЫГАНЕ=ROMA=Cingaris=GYPSIES=CIGANOS=吉普賽人=ZINGARI=जिप्सФорум
RADIO

GIPSY VOICE
radio

ЦЫГАНСКИЕ СТРУНЫ
радио

Суббота, 18.11.2017, 01:50
Главная
Регистрация
Вход
Цыганский портал!!!приветствую ромалэ!!зачан!!
Приветствую Вас Гость | RSS
[ Новые сообщения · Участники · Правила форума · Поиск · RSS ]
Страница 1 из 11
ЦЫГАНЕ=ROMA=Cingaris=GYPSIES=CIGANOS=吉普賽人=ZINGARI=जिप्सФорум » ЦЫГАНСКИЙ РАЗДЕЛ » ФИЛЬМЫ НА ЦЫГАНСКУЮ ТЕМАТИКУ FULL HD 720P 60 FPS » Гаджо (1992)Россия (Лен фильм) (Драма, Мелодрама Продюсер: Ада Ставиская)
Гаджо (1992)Россия (Лен фильм)
murrshakoДата: Четверг, 24.09.2015, 12:12 | Сообщение # 1
Группа: Администраторы
Сообщений: 2053
Репутация: 55
Статус: Offline


Гаджо (1992)Россия (Лен фильм)



Название: Гаджо

Длительность: 98 мин.

Рубрики: Драма, Мелодрама

Год: 1992

Производство: Россия

Режиссёр: Дмитрий Светозаров

Актёр: Сергей Бехтерев, Алена Бужилова, Николай Трофимов, Наташа Иноземцева

Продюсер: Ада Ставиская, Александр Голутва

Сценарий: Дмитрий Светозаров

Оператор: Александр Устинов, Валерий Ревич

Композитор: Тимур Коган

Художник: Елена Жукова
Рейтинг Рейтинг IMDB 0 КиноПоиск: 0 Рейтинг сайта: 0

Просмотров: 1933

Описание:

Одинокий, беззащитный, неустроенный человек встречает красавицу-цыганку и влюбляется в нее. Бросив службу, уйдя из дома, он прибивается к табору, но и здесь не находит ни дома, ни любви - только жалость. Так он и остается для всех "гаджо", чужим.


БОНУС ТОЛЬКО ЗАРЕГИСТРИРОВАННЫМ ЛИЦАМ ЦЫГАНСКОЙ НАЦИОНАЛЬНОСТИ И НЕ ОЧЕНЬ
ПРОСМОТР ФИЛЬМА В КАЧЕСТВЕ FULL HD 1080р ВО ВЕСЬ ЭКРАН БЕЗ ЧЕРНЫХ ПОЛОС 24 FPS



Доступно только для пользователей

БОНУС ТОЛЬКО ЗАРЕГИСТРИРОВАННЫМ ЛИЦАМ ЦЫГАНСКОЙ НАЦИОНАЛЬНОСТИ И НЕ ОЧЕНЬ
ПРОСМОТР ФИЛЬМА В КАЧЕСТВЕ FULL HD 720р ВО ВЕСЬ ЭКРАН БЕЗ ЧЕРНЫХ ПОЛОС 60 FPS

Доступно только для пользователей


СМОТРЕТЬ ФИЛЬМ С ЧЕРНЫМИ ПОЛОСАМИ В КАЧЕСТВЕ 480Р



Прикрепления: 7127339.jpg(24Kb) · 2889900.jpg(20Kb)


Сообщение отредактировал murrshako - Вторник, 31.05.2016, 12:40
 
murrshakoДата: Четверг, 24.09.2015, 18:06 | Сообщение # 2
Группа: Администраторы
Сообщений: 2053
Репутация: 55
Статус: Offline
Format : MPEG-4
Format profile : Base Media
Codec ID : isom
File size : 1.54 GiB
Duration : 1h 33mn
Overall bit rate mode : Variable
Overall bit rate : 2 367 Kbps
Writing application : Lavf54.63.104

Video
ID : 1
Format : AVC
Format/Info : Advanced Video Codec
Format profile : Main@L3.2
Format settings, CABAC : Yes
Format settings, ReFrames : 1 frame
Codec ID : avc1
Codec ID/Info : Advanced Video Coding
Duration : 1h 33mn
Bit rate : 2 206 Kbps
Width : 1 280 pixels
Height : 720 pixels
Display aspect ratio : 16:9
Frame rate mode : Variable
Frame rate : 60.000 fps
Minimum frame rate : 15.000 fps
Maximum frame rate : 60.000 fps
Color space : YUV
Chroma subsampling : 4:2:0
Bit depth : 8 bits
Scan type : Progressive
Bits/(Pixel*Frame) : 0.040
Stream size : 1.45 GiB (94%)
Writing library : x264 core 129
Encoding settings : cabac=1 / ref=1 / deblock=1:0:0 / analyse=0x1:0x131 / me=dia / subme=2 / psy=1 / psy_rd=1.00:0.00 / mixed_ref=0 / me_range=16 / chroma_me=1 / trellis=0 / 8x8dct=0 / cqm=0 / deadzone=21,11 / fast_pskip=1 / chroma_qp_offset=0 / threads=2 / lookahead_threads=1 / sliced_threads=0 / nr=0 / decimate=1 / interlaced=0 / bluray_compat=0 / constrained_intra=0 / bframes=0 / weightp=2 / keyint=250 / keyint_min=25 / scenecut=40 / intra_refresh=0 / rc_lookahead=40 / rc=abr / mbtree=1 / bitrate=2206 / ratetol=1.0 / qcomp=0.60 / qpmin=10 / qpmax=51 / qpstep=4 / ip_ratio=1.41 / aq=1:1.00

Audio
ID : 2
Format : AAC
Format/Info : Advanced Audio Codec
Format profile : LC
Codec ID : 40
Duration : 1h 33mn
Duration_FirstFrame : 70ms
Bit rate mode : Variable
Bit rate : 138 Kbps
Maximum bit rate : 353 Kbps
Channel count : 2 channels
Original Channel count : 6 channels
Channel positions : Front: L C R, Side: L R, LFE
Sampling rate : 44.1 KHz
Compression mode : Lossy
Stream size : 91.8 MiB (6%)







........................................................................................................................
СКАЧАТЬ С ОБЛАКА В КАЧЕСТВЕ 1280-720Р 60 FPS

Доступно только для пользователей
Прикрепления: 6332809.jpg(1052Kb) · 3881860.jpg(939Kb) · 1412149.jpg(915Kb) · 0708489.jpg(948Kb) · 8909506.jpg(873Kb)


Сообщение отредактировал murrshako - Вторник, 31.05.2016, 20:09
 
ЦЫГАНЕ=ROMA=Cingaris=GYPSIES=CIGANOS=吉普賽人=ZINGARI=जिप्सФорум » ЦЫГАНСКИЙ РАЗДЕЛ » ФИЛЬМЫ НА ЦЫГАНСКУЮ ТЕМАТИКУ FULL HD 720P 60 FPS » Гаджо (1992)Россия (Лен фильм) (Драма, Мелодрама Продюсер: Ада Ставиская)
Страница 1 из 11
Поиск:

тест скорости интернета
| Copyright MyCorp © 2017 | |