благодарю!!ромалэ
ЯндексЯндекс. ДеньгиХочу такую же кнопку

http://murrshako-rom.ucoz.ru$724.67$724.67Сколько стоит ваш?

Ангел-хранитель / Andjeo cuvar 1987год(русская озвучка) - ЦЫГАНЕ=ROMA=Cingaris=GYPSIES=CIGANOS=吉普賽人=ZINGARI=जिप्सФорум
RADIO

GIPSY VOICE
radio

ЦЫГАНСКИЕ СТРУНЫ
радио

Пятница, 20.10.2017, 19:17
Главная
Регистрация
Вход
Цыганский портал!!!приветствую ромалэ!!зачан!!
Приветствую Вас Гость | RSS
[ Новые сообщения · Участники · Правила форума · Поиск · RSS ]
Страница 1 из 11
ЦЫГАНЕ=ROMA=Cingaris=GYPSIES=CIGANOS=吉普賽人=ZINGARI=जिप्सФорум » ЦЫГАНСКИЙ РАЗДЕЛ » ФИЛЬМЫ НА ЦЫГАНСКУЮ ТЕМАТИКУ FULL HD 720P 60 FPS » Ангел-хранитель / Andjeo cuvar 1987год(русская озвучка) (Страна: Югославия Жанр: Драма, криминал)
Ангел-хранитель / Andjeo cuvar 1987год(русская озвучка)
murrshakoДата: Воскресенье, 29.05.2016, 15:05 | Сообщение # 1
Группа: Администраторы
Сообщений: 2053
Репутация: 55
Статус: Offline


Ангел-хранитель / Andjeo cuvar (Горан Паскалевич / Goran Paskaljevic) [1987, Югославия, Драма, криминал, DVDRip] VO + Sub Rus + Сербско-Хорватский



Страна: Югославия
Жанр: Драма, криминал
Год выпуска: 1987
Продолжительность: 01:22:23

Перевод: Одноголосый закадровый на русском языке!!!
при желание можно использовать русские субтитры

Оригинальная аудиодорожка: Сербско-Хорватский

Режиссер: Горан Паскалевич / Goran Paskaljevic

В ролях: Любиша Самарджич / Ljubisa Samardzic, Jakup Amzic, Неда Арнерич / Neda Arneric, Сабан Байрамович / Saban Bajramovic, Esmeralda Ametovic, Раде Дервисевич / Rade Dervisevic, Trajko Domirovic, Паор Гальяно / Pahor Galiano, Гордана Йованович / Gordana Jovanovic, Ратко Милетич / Ratko Miletic

Описание: Журналист, познакомившись с уличным мальчишкой, выясняет, что цыганских детей продают в рабство за границу. Он пытается помочь своему юному другу и возвращает обратно в родную деревню. Однако мальчик снова готов продаться мафии, чтобы заработать на пропитание своей семье.

...........................................
Ангел-хранитель... в этом мучительном фильме показано , кто и как не защищает цыганских детей и как они продаются в виртуальное рабство с бандами организованных попрошаек, карманников и воров по всей Европе. После того, как "на работе", эти маленькие дети обрабатывают злобно, и даже слабые Непослушание встречается крайне садистских пыток. Тем не менее, в этом фильме, даже когда кто-то со стороны проявляет интерес к отдельному цыганскому ребенку и пытается помочь ему избежать этой ситуации, мало что он может сделать, потому что даже когда мальчик возвращается в свою родную деревню, он убежден продать себя снова, так как его семье просто нечего есть

.

БОНУС ТОЛЬКО ЗАРЕГИСТРИРОВАННЫМ ЛИЦАМ ЦЫГАНСКОЙ НАЦИОНАЛЬНОСТИ И НЕ ОЧЕНЬ
ПРОСМОТР ФИЛЬМА В КАЧЕСТВЕ FULL HD 1080р ВО ВЕСЬ ЭКРАН БЕЗ ЧЕРНЫХ ПОЛОС 24 FPS


Доступно только для пользователей

Прикрепления: 6289235.jpg(37Kb)


Сообщение отредактировал murrshako - Воскресенье, 29.05.2016, 15:08
 
murrshakoДата: Пятница, 03.06.2016, 12:59 | Сообщение # 2
Группа: Администраторы
Сообщений: 2053
Репутация: 55
Статус: Offline
Format : MPEG-4
Format profile : Base Media
Codec ID : isom
File size : 1.35 GiB
Duration : 1h 22mn
Overall bit rate mode : Variable
Overall bit rate : 2 332 Kbps
Encoded date : UTC 2014-10-07 11:45:38
Tagged date : UTC 2014-10-07 11:45:38
Writing application : Lavf54.63.104

Video
ID : 1
Format : AVC
Format/Info : Advanced Video Codec
Format profile : Main@L3.2
Format settings, CABAC : Yes
Format settings, ReFrames : 1 frame
Codec ID : avc1
Codec ID/Info : Advanced Video Coding
Duration : 1h 22mn
Bit rate : 2 206 Kbps
Width : 1 280 pixels
Height : 720 pixels
Display aspect ratio : 16:9
Frame rate mode : Constant
Frame rate : 60.000 fps
Color space : YUV
Chroma subsampling : 4:2:0
Bit depth : 8 bits
Scan type : Progressive
Bits/(Pixel*Frame) : 0.040
Stream size : 1.27 GiB (94%)
Writing library : x264 core 129
Encoding settings : cabac=1 / ref=1 / deblock=1:0:0 / analyse=0x1:0x131 / me=dia / subme=2 / psy=1 / psy_rd=1.00:0.00 / mixed_ref=0 / me_range=16 / chroma_me=1 / trellis=0 / 8x8dct=0 / cqm=0 / deadzone=21,11 / fast_pskip=1 / chroma_qp_offset=0 / threads=2 / lookahead_threads=1 / sliced_threads=0 / nr=0 / decimate=1 / interlaced=0 / bluray_compat=0 / constrained_intra=0 / bframes=0 / weightp=2 / keyint=250 / keyint_min=25 / scenecut=40 / intra_refresh=0 / rc_lookahead=40 / rc=abr / mbtree=1 / bitrate=2206 / ratetol=1.0 / qcomp=0.60 / qpmin=10 / qpmax=51 / qpstep=4 / ip_ratio=1.41 / aq=1:1.00
Encoded date : UTC 2014-10-07 11:45:38
Tagged date : UTC 2014-10-07 11:45:38

Audio
ID : 2
Format : AAC
Format/Info : Advanced Audio Codec
Format profile : LC
Codec ID : 40
Duration : 1h 22mn
Duration_FirstFrame : 70ms
Bit rate mode : Variable
Bit rate : 128 Kbps
Maximum bit rate : 353 Kbps
Channel count : 2 channels
Original Channel count : 6 channels
Channel positions : Front: L C R, Side: L R, LFE
Sampling rate : 44.1 KHz
Compression mode : Lossy
Stream size : 75.7 MiB (5%)
Encoded date : UTC 2014-10-07 11:45:38
Tagged date : UTC 2014-10-07 11:45:38

СКРИНШОТЫ

БОНУС ТОЛЬКО ЗАРЕГИСТРИРОВАННЫМ ЛИЦАМ ЦЫГАНСКОЙ НАЦИОНАЛЬНОСТИ И НЕ ОЧЕНЬ
СКАЧАТЬ ФИЛЬМ В КАЧЕСТВЕ FULL HD 1080р--720Р ВО ВЕСЬ ЭКРАН БЕЗ ЧЕРНЫХ ПОЛОС 60 FPS

Доступно только для пользователей


Прикрепления: 4722652.jpg(422Kb) · 2471356.jpg(443Kb) · 2493394.jpg(538Kb) · 9109091.jpg(453Kb) · 0239345.jpg(400Kb)
 
ЦЫГАНЕ=ROMA=Cingaris=GYPSIES=CIGANOS=吉普賽人=ZINGARI=जिप्सФорум » ЦЫГАНСКИЙ РАЗДЕЛ » ФИЛЬМЫ НА ЦЫГАНСКУЮ ТЕМАТИКУ FULL HD 720P 60 FPS » Ангел-хранитель / Andjeo cuvar 1987год(русская озвучка) (Страна: Югославия Жанр: Драма, криминал)
Страница 1 из 11
Поиск:

тест скорости интернета
| Copyright MyCorp © 2017 | |