благодарю!!ромалэ
ЯндексЯндекс. ДеньгиХочу такую же кнопку

http://murrshako-rom.ucoz.ru$724.67$724.67Сколько стоит ваш?

БОЛЬШОЙ КУШ 2000год - ЦЫГАНЕ=ROMA=Cingaris=GYPSIES=CIGANOS=吉普賽人=ZINGARI=जिप्सФорум
RADIO

GIPSY VOICE
radio

ЦЫГАНСКИЕ СТРУНЫ
радио

Четверг, 25.05.2017, 13:40
Главная
Регистрация
Вход
Цыганский портал!!!приветствую ромалэ!!зачан!!
Приветствую Вас Гость | RSS
[ Новые сообщения · Участники · Правила форума · Поиск · RSS ]
Страница 1 из 11
ЦЫГАНЕ=ROMA=Cingaris=GYPSIES=CIGANOS=吉普賽人=ZINGARI=जिप्सФорум » ЦЫГАНСКИЙ РАЗДЕЛ » ФИЛЬМЫ НА ЦЫГАНСКУЮ ТЕМАТИКУ FULL HD 720P 60 FPS » БОЛЬШОЙ КУШ 2000год (Страна: Великобритания, США.)
БОЛЬШОЙ КУШ 2000год
murrshakoДата: Пятница, 03.06.2016, 13:06 | Сообщение # 1
Группа: Администраторы
Сообщений: 2041
Репутация: 55
Статус: Offline


Большой куш (2000)
Snatch


Продолжительность: 102 мин.
Жанр: Боевик, Комедия, Детектив, Триллер.
Страна: Великобритания, США.
Кинокомпании: Columbia Pictures Corporation, SKA Films.
Слоган: "Stealing stones is hazardous.".
Режиссер: Гай Ричи.
Сценарий: Гай Ричи.
Продюсеры: Майкл Дрейер, Стефен Маркс ... »
Оператор: Тим Морис-Джонс.
Художник: Хуго Лючик-Выховски.
Композитор: Джон Мерфи.
Костюмы: Верити Хоукс.
Бюджет: 10,000,000 $.
Кассовые сборы в мире: 53,229,716 ... »
Премьера в России: 10.05.2001 ... »
Качество: BDRip
Звук: Профессиональный многоголосый
Четырехпалый Фрэнки должен был переправить краденый алмаз из Англии в США своему боссу Эви. Но вместо этого герой попадает в эпицентр больших неприятностей. Сделав ставку на подпольном боксерском поединке, Фрэнки попал в водоворот весьма нежелательных событий. Вокруг героя и его груза развертывается сложная интрига с участием множества колоритных персонажей лондонского "дна" - русского гангстера, троих незадачливых грабителей, хитрого боксера по прозвищу Микки Один Удар, угрюмого громилы и грозного мафиози Кирпича, каждый из которых норовит в одиночку сорвать Большой Куш. Настолько же опасная, насколько и анекдотическая, ситуация постепенно выходит из-под контроля и превращается в огромный ком проблем для ее участников, споро катящийся к неожиданному и остроумному финалу…

В ролях: Брэд Питт, Джейсон Стэтхэм, Бенисио Дель Торо, Стивен Грэм, Алан Форд, Никки Коллинз, Тина Коллинз, Чарльз Корк, Джеймс Каннингэм, Сорча Кьюсак, Мики Ди, Юэн Бремнер, Сэм Дуглас, Деннис Фарина, Джейсон Флеминг ... »

БОНУС ТОЛЬКО ЗАРЕГИСТРИРОВАННЫМ ЛИЦАМ ЦЫГАНСКОЙ НАЦИОНАЛЬНОСТИ И НЕ ОЧЕНЬ
ПРОСМОТР ФИЛЬМА В КАЧЕСТВЕ FULL HD 1080р ВО ВЕСЬ ЭКРАН БЕЗ ЧЕРНЫХ ПОЛОС 24 FPS



Прикрепления: 2135496.jpg(135Kb) · 4859932.jpg(70Kb)


Сообщение отредактировал murrshako - Суббота, 04.06.2016, 11:36
 
murrshakoДата: Пятница, 03.06.2016, 13:20 | Сообщение # 2
Группа: Администраторы
Сообщений: 2041
Репутация: 55
Статус: Offline
Format : MPEG-4
Format profile : Base Media
Codec ID : isom
File size : 1.88 GiB
Duration : 1h 43mn
Overall bit rate : 2 604 Kbps
Encoded date : UTC 2014-10-07 11:45:38
Tagged date : UTC 2014-10-07 11:45:38
Writing application : Lavf54.63.104

Video
ID : 1
Format : AVC
Format/Info : Advanced Video Codec
Format profile : Main@L3.2
Format settings, CABAC : Yes
Format settings, ReFrames : 1 frame
Codec ID : avc1
Codec ID/Info : Advanced Video Coding
Duration : 1h 43mn
Bit rate : 2 206 Kbps
Width : 1 280 pixels
Height : 720 pixels
Display aspect ratio : 16:9
Frame rate mode : Variable
Frame rate : 60.000 fps
Minimum frame rate : 15.000 fps
Maximum frame rate : 60.000 fps
Color space : YUV
Chroma subsampling : 4:2:0
Bit depth : 8 bits
Scan type : Progressive
Bits/(Pixel*Frame) : 0.040
Stream size : 1.59 GiB (85%)
Writing library : x264 core 129
Encoding settings : cabac=1 / ref=1 / deblock=1:0:0 / analyse=0x1:0x131 / me=dia / subme=2 / psy=1 / psy_rd=1.00:0.00 / mixed_ref=0 / me_range=16 / chroma_me=1 / trellis=0 / 8x8dct=0 / cqm=0 / deadzone=21,11 / fast_pskip=1 / chroma_qp_offset=0 / threads=2 / lookahead_threads=1 / sliced_threads=0 / nr=0 / decimate=1 / interlaced=0 / bluray_compat=0 / constrained_intra=0 / bframes=0 / weightp=2 / keyint=250 / keyint_min=25 / scenecut=40 / intra_refresh=0 / rc_lookahead=40 / rc=abr / mbtree=1 / bitrate=2206 / ratetol=1.0 / qcomp=0.60 / qpmin=10 / qpmax=51 / qpstep=4 / ip_ratio=1.41 / aq=1:1.00
Encoded date : UTC 2014-10-07 11:45:38
Tagged date : UTC 2014-10-07 11:45:38

Audio
ID : 2
Format : AAC
Format/Info : Advanced Audio Codec
Format profile : LC
Codec ID : 40
Duration : 1h 43mn
Duration_FirstFrame : 64ms
Bit rate mode : Constant
Bit rate : 384 Kbps
Channel count : 2 channels
Original Channel count : 6 channels
Channel positions : Front: L C R, Side: L R, LFE
Sampling rate : 48.0 KHz
Compression mode : Lossy
Stream size : 283 MiB (15%)
Encoded date : UTC 2014-10-07 11:45:38
Tagged date : UTC 2014-10-07 11:45:38

СКРИНШОТЫ





БОНУС ТОЛЬКО ЗАРЕГИСТРИРОВАННЫМ ЛИЦАМ ЦЫГАНСКОЙ НАЦИОНАЛЬНОСТИ И НЕ ОЧЕНЬ
СКАЧАТЬ ФИЛЬМ В КАЧЕСТВЕ FULL HD 1080р-720Р ВО ВЕСЬ ЭКРАН БЕЗ ЧЕРНЫХ ПОЛОС 60 FPS

Доступно только для пользователей

Прикрепления: 8086393.jpg(353Kb) · 4770163.jpg(416Kb) · 9327840.jpg(392Kb) · 5699032.jpg(432Kb) · 4668243.jpg(417Kb)
 
ЦЫГАНЕ=ROMA=Cingaris=GYPSIES=CIGANOS=吉普賽人=ZINGARI=जिप्सФорум » ЦЫГАНСКИЙ РАЗДЕЛ » ФИЛЬМЫ НА ЦЫГАНСКУЮ ТЕМАТИКУ FULL HD 720P 60 FPS » БОЛЬШОЙ КУШ 2000год (Страна: Великобритания, США.)
Страница 1 из 11
Поиск:

тест скорости интернета
| Copyright MyCorp © 2017 | |