благодарю!!ромалэ
ЯндексЯндекс. ДеньгиХочу такую же кнопку

http://murrshako-rom.ucoz.ru$724.67$724.67Сколько стоит ваш?

Скупщики перьев (Я видел даже счастливых цыган) / Skupljaci - ЦЫГАНЕ=ROMA=Cingaris=GYPSIES=CIGANOS=吉普賽人=ZINGARI=जिप्सФорум
RADIO

GIPSY VOICE
radio

ЦЫГАНСКИЕ СТРУНЫ
радио

Четверг, 17.08.2017, 08:56
Главная
Регистрация
Вход
Цыганский портал!!!приветствую ромалэ!!зачан!!
Приветствую Вас Гость | RSS
[ Новые сообщения · Участники · Правила форума · Поиск · RSS ]
Страница 1 из 11
ЦЫГАНЕ=ROMA=Cingaris=GYPSIES=CIGANOS=吉普賽人=ZINGARI=जिप्सФорум » ЦЫГАНСКИЙ РАЗДЕЛ » ФИЛЬМЫ НА ЦЫГАНСКУЮ ТЕМАТИКУ FULL HD 720P 60 FPS » Скупщики перьев (Я видел даже счастливых цыган) / Skupljaci ((Александр Петрович) 1967 г., Драма)
Скупщики перьев (Я видел даже счастливых цыган) / Skupljaci
murrshakoДата: Среда, 12.10.2016, 13:41 | Сообщение # 1
Группа: Администраторы
Сообщений: 2053
Репутация: 55
Статус: Offline


Скупщики перьев (Я видел даже счастливых цыган) / Skupljaci perja

Год выпуска: 1967
Страна: Югославия
Жанр: Драма, комедия
Продолжительность: 01:22:02
Перевод: Профессиональный (двухголосый)

Режиссер: Александр Петрович

В ролях: Оливера Вуко (Olivera Vuco), Беким Фехмиу (Bekim Fehmiu), Гордана Йованович (Gordana Jovanovic)

Описание: Это фильм о балканских цыганах, и режиссер фильма - югослав Петрович - звезда кинофестивалей 60-х - 30 лет назад занимал в киномире ту же нишу, что сегодня Кустурица. Воеводина. Цыгане. Безрадостный быт и отчаянные страсти с развлечениями в фолк-стиле. Местный бизнес - перепродажа гусиных перьев - на редкость наглядно соответствует менталитету и образу жизни героев фильма. Ведь с одной стороны пух «мягок, как душа», но с другой, когда его развеет (а это в фильме происходит не раз), то очень уж похоже на летний снег, явление коварное, зловредное и быстро проходящее. Столь же нелепы, по крайней мере, на первый взгляд, и очень многие из происходящих в ленте событий. Секрет этого - в сочетании природной импульсивности с одновременным следованием вековым традициям, многие из которых в современных условиях выглядят полными анахронизмами. А в результате даже, казалось бы, безобидные вещи порой приводят к подлинным трагедиям. Вот и в данном случае могла получиться красивая романтическая история, но, увы... 30-летний Б.Фехмию («Протест») сыграл лучшую в карьере роль.



Доп. информация: Номинация на Оскар 1967 г, приз критики ФИПРЕССИ в 1967, Гран-при жюри Каннского фестиваля.
Топ-киновед С.Кудрявцев включил «Скупщиков перьев» в 200 лучших фильмов мирового кинематографа. Эта картина осталась вершиной творчества Петровича, оказав большое влияние на югославское кино и прославив его во всем мире.




16.04.2009
Сергей Кудрявцев

Это, безусловно, лучшая работа режиссёра Александра Петровича, к тому же признанная Югославской киноакадемией в 1996 году (увы, уже после смерти постановщика, которая случилась двумя годами ранее в Париже) второй по счёту среди лучших сербских лент всего послевоенного периода. Цыганская приземлённо-бытовая, а порой и грубо-криминальная история рассказана удивительно поэтично и проникновенно, что позволяет современным зрителям убедиться: несомненный талант другого югославского автора Эмира Кустурицы возник отнюдь не на пустом месте, хотя Кустурица пошёл дальше Петровича и смог, в отличие от него, очень своеобразно вписаться в иностранный кинематограф.
В северно-сербском регионе Войводина всегда жили разные народности — сербы, венгры, словаки, словенцы, а также цыгане, которые воспринимались всё-таки как маргиналы по сравнению с другими местными обитателями. Привлекательный цыган Бора из маленького городка Сомбор, что находится почти на границе с Венгрией, был скупщиком гусиных перьев, соперничая за эту территорию с более старшим по возрасту Миртой. Несмотря на то, что Бора женат и имеет детей, большую часть времени проводил в пьянках, игре в карты и любовных авантюрах с посторонними женщинами, прежде всего — с цыганской певицей Ленкой. Кроме того, он влюблён в Тису, пытаясь отбить её у Мирты, который сам строит планы на счёт молодой девушки, хотя Тиса является дочерью его бывшей жены, но рождённой в другом браке. Вражда между Борой и Миртой из-за одного и того же объекта страсти приводит к весьма драматическим последствиям.

Фильм «Скупщики перьев» (на Западе он известен под более красивым названием «Я видел даже счастливых цыган», которое позаимствовано из неоднократно звучащей на экране цыганской песни «Джелем, джелем») не был обделён вниманием далеко за пределами Югославии. Он удостоился специальной премии жюри на Каннском фестивале и номинирован в США на «Золотой глобус» и «Оскар» (тогда награда Американской киноакадемии досталась не менее прославленной чехословацкой картине «Поезда под пристальным наблюдением» Иржи Менцеля).

А сам Александр Петрович стал в дальнейшем снимать при поддержке европейских продюсеров — «Скоро будет конец света», «Мастер и Маргарита», «Групповой портрет с дамой» и «Мигранты». Но эти произведения не вызвали такого художественного резонанса, как «Скупщики перьев». Главное же — режиссёр работал в подчас совершенно разной стилистике в пределах даже одной ленты, что особенно заметно в весьма неровной и спорной экранизации романа Михаила Булгакова. И фильм «Мигранты», снимавшийся долго и с немалыми сложностями, оказавшись финальным творением 60-летнего сербского мастера кино, сошёлся по воле судьбы в программе Каннского фестиваля 1989 года вместе с «Домом для повешения» / «Временем цыган» Эмира Кустурицы. Более молодой босниец как раз отвоевал в тот момент для себя персональное место в мировом кинематографе чуть ли не с эксклюзивным правом на дальнейшее представление цыган на экране.

1996/2006

БОНУС ТОЛЬКО ЗАРЕГИСТРИРОВАННЫМ ЛИЦАМ ЦЫГАНСКОЙ НАЦИОНАЛЬНОСТИ И НЕ ОЧЕНЬ
ПРОСМОТР ФИЛЬМА В КАЧЕСТВЕ FULL HD 1080р ВО ВЕСЬ ЭКРАН БЕЗ ЧЕРНЫХ ПОЛОС 24 FPS



Доступно только для пользователей





Прикрепления: 2814615.jpg(90Kb)


Сообщение отредактировал murrshako - Воскресенье, 16.10.2016, 16:40
 
murrshakoДата: Воскресенье, 16.10.2016, 21:07 | Сообщение # 2
Группа: Администраторы
Сообщений: 2053
Репутация: 55
Статус: Offline
MPEG-4
Format profile : Base Media
Codec ID : isom
File size : 2.39 GiB
Duration : 1h 22mn
Overall bit rate mode : Variable
Overall bit rate : 4 150 Kbps
Writing application : Lavf54.63.104

Video
ID : 1
Format : AVC
Format/Info : Advanced Video Codec
Format profile : Main@L3.2
Format settings, CABAC : Yes
Format settings, ReFrames : 1 frame
Codec ID : avc1
Codec ID/Info : Advanced Video Coding
Duration : 1h 22mn
Bit rate : 4 000 Kbps
Width : 1 280 pixels
Height : 720 pixels
Display aspect ratio : 16:9
Frame rate mode : Constant
Frame rate : 60.000 fps
Color space : YUV
Chroma subsampling : 4:2:0
Bit depth : 8 bits
Scan type : Progressive
Bits/(Pixel*Frame) : 0.072
Stream size : 2.31 GiB (96 wacko
Writing library : x264 core 129
Encoding settings : cabac=1 / ref=1 / deblock=1:0:0 / analyse=0x1:0x131 / me=dia / subme=2 / psy=1 / psy_rd=1.00:0.00 / mixed_ref=0 / me_range=16 / chroma_me=1 / trellis=0 / 8x8dct=0 / cqm=0 / deadzone=21,11 / fast_pskip=1 / chroma_qp_offset=0 / threads=2 / lookahead_threads=1 / sliced_threads=0 / nr=0 / decimate=1 / interlaced=0 / bluray_compat=0 / constrained_intra=0 / bframes=0 / weightp=2 / keyint=250 / keyint_min=25 / scenecut=40 / intra_refresh=0 / rc_lookahead=40 / rc=abr / mbtree=1 / bitrate=4000 / ratetol=1.0 / qcomp=0.60 / qpmin=10 / qpmax=51 / qpstep=4 / ip_ratio=1.41 / aq=1:1.00

Audio
ID : 2
Format : AAC
Format/Info : Advanced Audio Codec
Format profile : LC
Codec ID : 40
Duration : 1h 22mn
Duration_FirstFrame : 70ms
Bit rate mode : Variable
Bit rate : 137 Kbps
Maximum bit rate : 353 Kbps
Channel count : 2 channels
Original Channel count : 6 channels
Channel positions : Front: L C R, Side: L R, LFE
Sampling rate : 44.1 KHz
Compression mode : Lossy
Stream size : 80.5 MiB (3 wacko
СКРИНЫ


ПЕРЕХОД СКАЧАТЬ ФИЛЬМ В КАЧЕСТВЕ 1280-720 60 FРS
Доступно только для пользователей




Прикрепления: 7897493.jpg(88Kb) · 2498370.jpg(68Kb) · 5347711.jpg(73Kb) · 0706322.jpg(85Kb) · 9892408.jpg(84Kb)
 
murrshakoДата: Среда, 19.10.2016, 22:56 | Сообщение # 3
Группа: Администраторы
Сообщений: 2053
Репутация: 55
Статус: Offline

Прикрепления: 6796717.jpg(72Kb) · 7559294.jpg(103Kb) · 5832908.jpg(100Kb) · 0041789.jpg(76Kb) · 8157504.jpg(83Kb)
 
ЦЫГАНЕ=ROMA=Cingaris=GYPSIES=CIGANOS=吉普賽人=ZINGARI=जिप्सФорум » ЦЫГАНСКИЙ РАЗДЕЛ » ФИЛЬМЫ НА ЦЫГАНСКУЮ ТЕМАТИКУ FULL HD 720P 60 FPS » Скупщики перьев (Я видел даже счастливых цыган) / Skupljaci ((Александр Петрович) 1967 г., Драма)
Страница 1 из 11
Поиск:

тест скорости интернета
| Copyright MyCorp © 2017 | |