благодарю!!ромалэ
ЯндексЯндекс. ДеньгиХочу такую же кнопку

http://murrshako-rom.ucoz.ru$724.67$724.67Сколько стоит ваш?

Gypsy Woman Cikanka 2001год - ЦЫГАНЕ=ROMA=Cingaris=GYPSIES=CIGANOS=吉普賽人=ZINGARI=जिप्सФорум
RADIO

GIPSY VOICE
radio

ЦЫГАНСКИЕ СТРУНЫ
радио

Воскресенье, 24.09.2017, 06:22
Главная
Регистрация
Вход
Цыганский портал!!!приветствую ромалэ!!зачан!!
Приветствую Вас Гость | RSS
[ Новые сообщения · Участники · Правила форума · Поиск · RSS ]
Страница 1 из 11
ЦЫГАНЕ=ROMA=Cingaris=GYPSIES=CIGANOS=吉普賽人=ZINGARI=जिप्सФорум » ЦЫГАНСКИЙ РАЗДЕЛ » ФИЛЬМЫ НА ЦЫГАНСКУЮ ТЕМАТИКУ FULL HD 720P 60 FPS » Gypsy Woman Cikanka 2001год (Страна Великобритания Жанр Мелодрама(русский дубляж))
Gypsy Woman Cikanka 2001год
murrshakoДата: Пятница, 25.04.2014, 19:40 | Сообщение # 1
Группа: Администраторы
Сообщений: 2053
Репутация: 55
Статус: Offline



Gypsy Woman

Год 2001
Страна Великобритания
Жанр Мелодрама
Режиссер Шери Фольксон


В ролях Корин Редгрейв, Уильям Бек, Нив МакИнтош, Джек Девенпорт, Джулиан Уэдэм, Джек Уоррен, Форбс Массон, Терри Бёрд, Скотт Сайер
Продолжительность 1:23 (84 минуты)

Прекрасная, полная юмора, истории о любви свободолюбивой цыганки и адвоката — «настоящего английского джентльмена»

СМОТРЕТЬ ФИЛЬМ В КАЧЕСТВЕ FULL HD 720P

Доступно только для пользователей

АЛЬТЕРНАТИВА

Доступно только для пользователей



Прикрепления: 2046784.jpg(42Kb)


Сообщение отредактировал murrshako - Суббота, 26.04.2014, 13:41
 
murrshakoДата: Суббота, 26.04.2014, 14:41 | Сообщение # 2
Группа: Администраторы
Сообщений: 2053
Репутация: 55
Статус: Offline




Цыганка / Gypsy WomanГод выпуска: 2001
Страна: Великобритания
Жанр: Мелодрама
Продолжительность: 1:23:41
Перевод: Профессиональный (многоголосый закадровый) (ТВ3)
Cубтитры: русские (перевод - nadine_s), английские
Оригинальная аудиодорожка: английский


Режиссер: Шери Фольксон / Sheree Folkson
В ролях: Джек Девенпорт (Jack Davenport); Джек Уоррен (Jack Warren); Нив МакИнтош (Neve McIntosh); Джулиан Уэдэм (Julian Wadham); Форбс Массон (Forbes Masson); Терри Бёрд (Terry Bird); Уильям Бек (William Beck); Корин Редгрейв (Corin Redgrave); Lalage Lumley (Lalage Lumley); Скотт Сайер (Scott Sayer).Описание: Прекрасная, полная юмора, истории о любви свободолюбивой цыганки и адвоката — «настоящего английского джентльмена».Доп. информация:
Дружно благодарим: nadine_s (зачинщик, русские сабы), nfyznfyz (запись русской дороги с ТВ3), Эталон67 (передача мне русской дороги на синхронизацию).

pic pic
Сэмпл: НародКачество видео: DVDRip (Исходник DVD5)
Формат видео: AVI
Видео: 720x400 (1.80:1), 25 fps, XviD build 50 ~2146 kbps avg, 0.30 bit/pixel
Аудио 1: (RUS): 48 kHz, AC3 Dolby Digital, 2/0 (L,R) ch, ~192 kbps
Аудио 2: (ENG): 48 kHz, AC3 Dolby Digital, 2/0 (L,R) ch, ~192 kbps (Отдельно)
Формат субтитров: softsub (SRT)
torrent скачан: 1006 раз
Размер: 1.49 GB

Доступно только для пользователей


Прикрепления: 0923236.jpg(403Kb) · 4579058.png(593Kb) · 9506561.png(545Kb) · 2651893.png(278Kb) · 0034239.png(372Kb)


Сообщение отредактировал murrshako - Суббота, 26.04.2014, 14:44
 
murrshakoДата: Среда, 09.07.2014, 13:50 | Сообщение # 3
Группа: Администраторы
Сообщений: 2053
Репутация: 55
Статус: Offline
Format : MPEG-4
Format profile : Base Media
Codec ID : isom
File size : 1.39 GiB
Duration : 1h 23mn
Overall bit rate mode : Variable
Overall bit rate : 2 371 Kbps
Writing application : Lavf54.63.104

Video
ID : 1
Format : AVC
Format/Info : Advanced Video Codec
Format profile : Main@L3.2
Format settings, CABAC : Yes
Format settings, ReFrames : 1 frame
Codec ID : avc1
Codec ID/Info : Advanced Video Coding
Duration : 1h 23mn
Bit rate : 2 206 Kbps
Width : 1 280 pixels
Height : 720 pixels
Display aspect ratio : 16:9
Frame rate mode : Variable
Frame rate : 59.996 fps
Minimum frame rate : 30.000 fps
Maximum frame rate : 60.000 fps
Color space : YUV
Chroma subsampling : 4:2:0
Bit depth : 8 bits
Scan type : Progressive
Bits/(Pixel*Frame) : 0.040
Stream size : 1.28 GiB (92%)
Writing library : x264 core 129
Encoding settings

Audio
ID : 2
Format : AAC
Format/Info : Advanced Audio Codec
Format profile : LC
Codec ID : 40
Duration : 1h 23mn
Duration_FirstFrame : 64ms
Bit rate mode : Variable
Bit rate : 182 Kbps
Maximum bit rate : 384 Kbps
Channel(s) : 6 channels
Channel positions : Front: L C R, Side: L R, LFE
Sampling rate : 48.0 KHz
Compression mode : Lossy
Stream size : 109 MiB (8%)

ПЕРЕХОД СКАЧАТЬ ФИЛЬМ В КАЧЕСТВЕ 1280 НА 720Р 60 FPS 5.1 ЗВУК

Доступно только для пользователей



Прикрепления: 4857376.jpg(497Kb) · 4775373.jpg(571Kb) · 4041013.jpg(459Kb) · 0360014.jpg(486Kb)
 
ЦЫГАНЕ=ROMA=Cingaris=GYPSIES=CIGANOS=吉普賽人=ZINGARI=जिप्सФорум » ЦЫГАНСКИЙ РАЗДЕЛ » ФИЛЬМЫ НА ЦЫГАНСКУЮ ТЕМАТИКУ FULL HD 720P 60 FPS » Gypsy Woman Cikanka 2001год (Страна Великобритания Жанр Мелодрама(русский дубляж))
Страница 1 из 11
Поиск:

тест скорости интернета
| Copyright MyCorp © 2017 | |