благодарю!!ромалэ
ЯндексЯндекс. ДеньгиХочу такую же кнопку

http://murrshako-rom.ucoz.ru$724.67$724.67Сколько стоит ваш?

Время цыган / Дом для повешения / Time Of The Gypsies /1988 - ЦЫГАНЕ=ROMA=Cingaris=GYPSIES=CIGANOS=吉普賽人=ZINGARI=जिप्सФорум
RADIO

GIPSY VOICE
radio

ЦЫГАНСКИЕ СТРУНЫ
радио

Пятница, 28.07.2017, 07:48
Главная
Регистрация
Вход
Цыганский портал!!!приветствую ромалэ!!зачан!!
Приветствую Вас Гость | RSS
[ Новые сообщения · Участники · Правила форума · Поиск · RSS ]
Страница 1 из 212»
ЦЫГАНЕ=ROMA=Cingaris=GYPSIES=CIGANOS=吉普賽人=ZINGARI=जिप्सФорум » ЦЫГАНСКИЙ РАЗДЕЛ » ФИЛЬМЫ НА ЦЫГАНСКУЮ ТЕМАТИКУ FULL HD 720P 60 FPS » Время цыган / Дом для повешения / Time Of The Gypsies /1988 (Авторы сценария:Гордан Михич и Эмир Кустурица)
Время цыган / Дом для повешения / Time Of The Gypsies /1988
murrshakoДата: Вторник, 07.10.2014, 13:54 | Сообщение # 1
Группа: Администраторы
Сообщений: 2051
Репутация: 55
Статус: Offline


Время цыган / Дом для повешения / Time Of The Gypsies / Dom za vesanje
Театральная версия



Режиссер: Эмир Кустурица / Emir Kusturica

В ролях: Давор Дуймович, Бора Тодорович, Любица Аджович, Хусния Хасимович, Синоличка Трпкова, Забит Мемедов, Эльвира Сали, Суада Карисик, Предраг Лакович, Мирсад Зулич, Седрийе Халим, Сабан Рожан, Бранко Джурич, Ирфан Джагли, Юлиана Демирович

Описание: Перхана, обладающего способностью взглядом передвигать предметы, воспитывает бабушка, сама наделенная даром лечить людей без лекарств. Есть у Перхана еще дядя, безнадежный игрок, не знающий, что такое удача, и сестра-калека. Появляется у Перхана и любовь, но родители не отдают за него дочь — Перхан беден, живет честно, а у таких деньги не заводятся. И он отправляется вместе с богатым цыганским бароном Ахметом в Италию, чтобы по дороге отдать сестру в больницу в Люблянах, заработать денег, построить дом и жениться на любимой…

из книги «3500 кинорецензий» 9.0/10
Драматическая фантазия-притча




СМОТРЕТЬ 1-Ю СЕРИЮ ФИЛЬМА В КАЧЕСТВЕ 720Р ВО ВЕСЬ ЭКРАН БЕЗ ЧЕРНЫХ ПОЛОС



СМОТРЕТЬ 2-Ю СЕРИЮ ФИЛЬМА В КАЧЕСТВЕ 720Р ВО ВЕСЬ ЭКРАН БЕЗ ЧЕРНЫХ ПОЛОС

Доступно только для пользователей

СМОТРЕТЬ 3-Ю СЕРИЮ ФИЛЬМА В КАЧЕСТВЕ 720Р ВО ВЕСЬ ЭКРАН БЕЗ ЧЕРНЫХ ПОЛОС

Доступно только для пользователей

СМОТРЕТЬ 4-Ю СЕРИЮ ФИЛЬМА В КАЧЕСТВЕ 720Р ВО ВЕСЬ ЭКРАН БЕЗ ЧЕРНЫХ ПОЛОС

Доступно только для пользователей

СМОТРЕТЬ 5 ЗАКЛЮЧИТЕЛЬНУЮ СЕРИЮ ФИЛЬМА В КАЧЕСТВЕ 720Р ВО ВЕСЬ ЭКРАН БЕЗ ЧЕРНЫХ ПОЛОС

Доступно только для пользователей

Прикрепления: 6778712.jpg(156Kb)


Сообщение отредактировал murrshako - Среда, 08.10.2014, 22:24
 
murrshakoДата: Вторник, 07.10.2014, 14:12 | Сообщение # 2
Группа: Администраторы
Сообщений: 2051
Репутация: 55
Статус: Offline



Время цыган / Дом для повешения / Time Of The Gypsies / Dom za vesanje



Год выпуска: 1988
Страна: Югославия
Жанр: Драма
Продолжительность: 2:16:18
Перевод: Профессиональный (полное дублирование)
Русские субтитры: нет

Режиссер: Эмир Кустурица / Emir Kusturica

В ролях: Давор Дуймович, Бора Тодорович, Любица Аджович,
Хусния Хашимович, Синоличка Тройкова, Забит Мехмедов, Эльвира Сали

Описание:
Удостоенный приза за режиссуру в Каннах, фильм является безусловным шедевром кино, обо всех достоинствах которого в объеме аннотации рассказать невозможно. Перхана, обладающего способностью взглядом передвигать предметы, воспитывает бабушка, сама наделенная даром лечить людей без лекарств. Есть у Перхана еще дядя, безнадежный игрок, не знающий, что такое удача, и сестра-калека. Появляется у Перхана и любовь, но родители не отдают за него дочь - Перхан беден, живет честно, а у таких деньги не заводятся. И он отправляется в Италию, чтобы по дороге отдать сестру в больницу в Люблянах, заработать денег, построить дом и жениться на любимой. А зарабатывают цыгане, продавая детей, воруя, нищенствуя. Перхан ломает в себе чистый стержень, "поймав самого себя на лжи", он никому не верит, и золото течет к нему в руки, но бабушка не рада такому богатству. Перхан не верит, что девушка, ради которой он уехал на заработки, носит его ребенка. Она рожает ему сына, но сама умирает...
Эмир Кустурица превращает эту историю не просто в народную, «цыганскую драму», а в своего рода мифологическое сказание, метафизическую притчу, балансируя на грани между вымыслом и реальностью, мечтой и действительностью, бытовым и ирреальным миром, жизнью и смертью, проявляя себя как поэт и философ, воспаряющий от грязи и пороков к грезам о горнем крае...

Доп. информация:
Переводы:
1. Дубляж к/ст. М.Горького, 1991
Полная версия советского дубляжа только в DVDRip
2. СВ-Дубль по заказу ГТРК Культура, 2006 (?)
Как видно, DVD отличается от других DVD (с телеверсией) превосходным качеством, благодаря реставрации Columbia Pictures.

Дублированная версия фильма в виде VHSRip - pic, спасибо Diamed1975 !
Синхронизация русского звука и сборка DVD: bigfoothart

Доп.материалы:
трейлер на англ. языке (Columbia Pictures, 1989)

Источник DVD:
Французское издание http://www.kustu.com/w2/en:tdg_dvd_fr
Меню кто-то кастомизировал, и сделал на английском.

Качество: DVD9
Формат: DVD Video
Видео кодек: MPEG2
Аудио кодек: AC3
Видео: PAL 25fps 720x576, widescreen, progressive, anamorphic
Аудио: Дубляж (AC3, 2.0 mono, 48kHz, 192kbps), Многоголосый перевод (AC3, 2.0 mono, 48kHz, 192kbps) , Serbo-Croatian (AC3, 2.0 stereo, 48kHz, 448kbps), Serbo-Croatian (AC3 1.0, 48kHz, 256kbps) French (AC3, 1.0, 48kHz, 256 kbps)

Статус: √ проверено
.torrent скачан: 3191 раз
Размер: 7.26 GB

Доступно только для пользователей



Прикрепления: 8224692.jpeg(51Kb) · 6644358.jpg(74Kb)
 
murrshakoДата: Суббота, 11.10.2014, 13:06 | Сообщение # 3
Группа: Администраторы
Сообщений: 2051
Репутация: 55
Статус: Offline



60FPS (ЗВУК 5.1)МР4-2-я серия.m4v
Format : MPEG-4
Codec ID : M4V
File size : 928 MiB
Duration : 27mn 37s
Overall bit rate mode : Variable
Overall bit rate : 4 694 Kbps
Encoded date : UTC 2014-10-05 20:00:56
Tagged date : UTC 2014-10-05 20:00:56

Video
ID : 1
Format : AVC
Format/Info : Advanced Video Codec
Format profile : Main@L3.2
Format settings, CABAC : Yes
Format settings, ReFrames : 1 frame
Codec ID : avc1
Codec ID/Info : Advanced Video Coding
Duration : 40s 500ms
Bit rate : 4 287 Kbps
Nominal bit rate : 4 644 Kbps
Maximum bit rate : 4 204 Kbps
Width : 1 280 pixels
Height : 720 pixels
Display aspect ratio : 16:9
Frame rate mode : Constant
Frame rate : 60.000 fps
Color space : YUV
Chroma subsampling : 4:2:0
Bit depth : 8 bits
Scan type : Progressive
Bits/(Pixel*Frame) : 0.078
Stream size : 20.7 MiB (2%)
Writing library : x264 core 129
Encoding settings

Tagged date : UTC 2014-10-05 20:03:07
Material_Duration : 1658000
Material_StreamSize : 941907177
Material_FrameCount : 99480

Audio
ID : 2
Format : AAC
Format/Info : Advanced Audio Codec
Format profile : LC
Codec ID : 40
Duration : 27mn 37s
Duration_FirstFrame : 64ms
Bit rate mode : Variable
Bit rate : 144 Kbps
Nominal bit rate : 93.1 Kbps
Maximum bit rate : 102 Kbps
Channel(s) : 6 channels
Channel positions : Front: L C R, Side: L R, LFE
Sampling rate : 48.0 KHz
Compression mode : Lossy
Stream size : 28.8 MiB (3%)
Encoded date : UTC 2014-10-05 20:00:56
Tagged date : UTC 2014-10-05 20:03:07



Прикрепления: 0861516.jpg(292Kb) · 3219355.jpg(672Kb) · 6461022.jpg(369Kb) · 1481386.jpg(505Kb) · 1760486.jpg(451Kb)


Сообщение отредактировал murrshako - Суббота, 11.10.2014, 13:25
 
murrshakoДата: Четверг, 15.01.2015, 18:09 | Сообщение # 4
Группа: Администраторы
Сообщений: 2051
Репутация: 55
Статус: Offline
Прикрепления: 2831924.jpg(88Kb)
 
murrshakoДата: Воскресенье, 18.01.2015, 16:40 | Сообщение # 5
Группа: Администраторы
Сообщений: 2051
Репутация: 55
Статус: Offline


Время цыган / Дом для повешения / Time Of The Gypsies / Dom za vesanje 1988год

ГОРИЗОНТАЛЬНАЯ анаморфная СТЕРЕОПАРА без черных полос во весь экран

ВОСПРОИЗВОДИТСЯ НА ВСТРОЕННОМ ПЛЕРЕ ТЕЛЕВИЗОРА


• «Золотой жук» за лучший иностранный фильм в Швеции.

• Сезар, 1990 год
Номинации (1):
— Лучший фильм на иностранном языке

• Каннский кинофестиваль, 1989 год
Победитель (1):
— Лучший режиссер (Эмир Кустурица)

Номинации (1):
— Золотая пальмовая ветвь

• Европейская киноакадемия, 1989 год
Номинации (1):
— Лучшая мужская роль (Давор Дуймович)

Год выпуска: 1988
Страна: Югославия
Жанр: Драма
Продолжительность: 2:16:18
Перевод: Профессиональный (полное дублирование)
Русские субтитры: нет

Режиссер: Эмир Кустурица / Emir Kusturica

В ролях: Давор Дуймович, Бора Тодорович, Любица Аджович,
Хусния Хашимович, Синоличка Тройкова, Забит Мехмедов, Эльвира Сали

Описание:
Удостоенный приза за режиссуру в Каннах, фильм является безусловным шедевром кино, обо всех достоинствах которого в объеме аннотации рассказать невозможно. Перхана, обладающего способностью взглядом передвигать предметы, воспитывает бабушка, сама наделенная даром лечить людей без лекарств. Есть у Перхана еще дядя, безнадежный игрок, не знающий, что такое удача, и сестра-калека. Появляется у Перхана и любовь, но родители не отдают за него дочь - Перхан беден, живет честно, а у таких деньги не заводятся. И он отправляется в Италию, чтобы по дороге отдать сестру в больницу в Люблянах, заработать денег, построить дом и жениться на любимой. А зарабатывают цыгане, продавая детей, воруя, нищенствуя. Перхан ломает в себе чистый стержень, "поймав самого себя на лжи", он никому не верит, и золото течет к нему в руки, но бабушка не рада такому богатству. Перхан не верит, что девушка, ради которой он уехал на заработки, носит его ребенка. Она рожает ему сына, но сама умирает...
Эмир Кустурица превращает эту историю не просто в народную, «цыганскую драму», а в своего рода мифологическое сказание, метафизическую притчу, балансируя на грани между вымыслом и реальностью, мечтой и действительностью, бытовым и ирреальным миром, жизнью и смертью, проявляя себя как поэт и философ, воспаряющий от грязи и пороков к грезам о горнем крае...

Доп. информация:
Переводы:
1. Дубляж к/ст. М.Горького, 1991
Полная версия советского дубляжа только в DVDRip

Overall bit rate mode : Variable
Overall bit rate : 8 044 Kbps
Writing application : Lavf54.59.106

Video
ID : 1
Format : AVC
Format/Info : Advanced Video Codec
Format profile : Baseline@L4.0
Format settings, CABAC : No
Format settings, ReFrames : 2 frames
Codec ID : avc1
Codec ID/Info : Advanced Video Coding
Duration : 19mn 5s
Bit rate : 8 000 Kbps
Width : 1 920 pixels
Height : 1 080 pixels
Display aspect ratio : 16:9
Frame rate mode : Constant
Frame rate : 29.970 fps
Color space : YUV
Chroma subsampling : 4:2:0
Bit depth : 8 bits
Scan type : Progressive
Bits/(Pixel*Frame) : 0.129

Audio
ID : 2
Format : AAC
Format/Info : Advanced Audio Codec
Format profile : LC
Codec ID : 40
Duration : 19mn 5s
Duration_LastFrame : -1ms
Bit rate mode : Variable
Bit rate : 76.2 Kbps
Maximum bit rate : 192 Kbps
Channel(s) : 6 channels
Channel positions : Front: L C R, Side: L R, LFE
Sampling rate : 44.1 KHz
Compression mode : Lossy
Stream size : 10.4 MiB (1%)

Я ПРИНОШУ СВОИ ИЗВИНЕНИЯ ЗА НЕУДОБСТВО ЧТО ФИЛЬМ РАЗБИТ НА НЕСКОЛЬКО ЧАСТЕЙ И НУЖНО СНАЧАЛА СКАЧАТЬ ВСЕ ЧАСТИ А ПОТОМ ПЕРЕМЕСТИТЬ НА ФЛЕШКУ И СМОТРЕТЬ НА ВСТРОЕННОМ ПЛЕЕРЕ ТЕЛЕВИЗОРА ИЛИ МОЖНО СМОТРЕТЬ НА КОМПЕ =НО ЕСТЬ И + ТАК КАК ЕСЛИ ЗАЛИТЬ НА ТОРРЕНТ ТО ПРИШЛОСЬ ИМЕТЬ ЗАВИСИМОСТЬ ОТ КОЛИЧЕСТВА ЛЮДЕЙ ИМЕЮЩИХ ФИЛЬМ......А В НАШЕМ ВАРИАНТЕ РЕАЛЬНО СКАЧАТЬ НА ПРЕДЕЛЬНОЙ СКОРОСТИ БЕЗ ОЧЕРЕДИ И БЕСПЛАТНО

Доступно только для пользователей

Доступно только для пользователей

Доступно только для пользователей

Доступно только для пользователей

Доступно только для пользователей

Доступно только для пользователей

Доступно только для пользователей

Доступно только для пользователей

СКРИНШОТЫ







Прикрепления: 4123026.jpg(889Kb) · 9885672.jpg(777Kb) · 6886654.jpg(932Kb) · 6216769.jpg(1079Kb) · 8760326.jpg(818Kb)
 
ЦЫГАНЕ=ROMA=Cingaris=GYPSIES=CIGANOS=吉普賽人=ZINGARI=जिप्सФорум » ЦЫГАНСКИЙ РАЗДЕЛ » ФИЛЬМЫ НА ЦЫГАНСКУЮ ТЕМАТИКУ FULL HD 720P 60 FPS » Время цыган / Дом для повешения / Time Of The Gypsies /1988 (Авторы сценария:Гордан Михич и Эмир Кустурица)
Страница 1 из 212»
Поиск:

тест скорости интернета
| Copyright MyCorp © 2017 | |