благодарю!!ромалэ
ЯндексЯндекс. ДеньгиХочу такую же кнопку

http://murrshako-rom.ucoz.ru$724.67$724.67Сколько стоит ваш?

Gitano (película de 1970) - ЦЫГАНЕ=ROMA=Cingaris=GYPSIES=CIGANOS=吉普賽人=ZINGARI=जिप्सФорум
RADIO

GIPSY VOICE
radio

ЦЫГАНСКИЕ СТРУНЫ
радио

Пятница, 20.10.2017, 06:34
Главная
Регистрация
Вход
Цыганский портал!!!приветствую ромалэ!!зачан!!
Приветствую Вас Гость | RSS
[ Новые сообщения · Участники · Правила форума · Поиск · RSS ]
Страница 1 из 11
ЦЫГАНЕ=ROMA=Cingaris=GYPSIES=CIGANOS=吉普賽人=ZINGARI=जिप्सФорум » ЦЫГАНСКИЙ РАЗДЕЛ » ФИЛЬМЫ НА ЦЫГАНСКУЮ ТЕМАТИКУ FULL HD 720P 60 FPS » Gitano (película de 1970) (главная роль Сандро Америка (Перевод Испанский))
Gitano (película de 1970)
murrshakoДата: Вторник, 09.12.2014, 15:02 | Сообщение # 1
Группа: Администраторы
Сообщений: 2053
Репутация: 55
Статус: Offline




SEE RANK
Цыган ( 1970 )
90 мин - Драма | Музыкальный | Романтика - 4 июня 1970 (Аргентина)



Режиссер: Эмилио Vieyra
Автор: Вальверде Сальвадор Кальво
Звезды: Сандро , Соледад Silveyra , Рикардо Bauleo |

Подробности

Страна: Аргентина
Язык: Испанский
Дата выпуска:4 июня 1970 (Аргентина) Смотреть больше »
Места съемок: Буэнос-Айрес, Федеральный округ, Аргентина

Технические характеристики

Продолжительность: 90 мин
Звук Mix: Моно
Цвет: Цвет (Eastmancolor)

СМОТРЕТЬ ФИЛЬМ В КАЧЕСТВЕ 720Р ВО ВЕСЬ ЭКРАН

Доступно только для пользователей

Прикрепления: 1457893.jpg(39Kb)
 
murrshakoДата: Вторник, 09.12.2014, 15:22 | Сообщение # 2
Группа: Администраторы
Сообщений: 2053
Репутация: 55
Статус: Offline

Цыган (1970 фильм)
Цыган



Технический
Адрес улицы
Эмилио Vieyra
Заместитель директора Хорхе Mobaied (помощник директора)
Производство Альберто и Рикардо Голан Голан
Guion Вальверде Сальвадор Кальво
Музыка
Хорхе Лопес Руис , песни
Сандро и песни Оскара Андерле
Фотография Оскар Мелли
Монтаж Атилио Rinaldi
Главные герои Сандро
Соледад Silveyra
Рикардо Bauleo
Silvina Рада
Просмотреть все кредиты ( IMDb )
Цифры и факты
Страна (ы) Аргентина
Год 1970
Пол Драма
Продолжительность 90 минут
Классификация Мистер
Язык (и) Испанский
Компании
Студия Студия Арройо
Листинг на IMDb
вкладке в FilmAffinity
Цыганская является фильм, снятый в цветах Аргентина , направленных на Эмилио Vieyra по сценарию Сальвадора Кальво Вальверде , премьера которого состоялась на 4 июня в 1970 и имел в главной роли Сандро , Соледад Silveyra , Рикардо Bauleo и SILVINA Раду . Фильм был частично снят в Necochea .

В ролях [ править ]
Сандро ... Роберто Vega
Соледад Silveyra ... Кармен
Рикардо Bauleo ... Мигель Риос
Сильвина Рада ... Алехандра
Педро Buchardo
Хуан Карлос Galvan ... Антонио
Наоми Laserre
Карлос Муньос
Romualdo Quiroga ... Дон Педро Манчини
Исидро Фернан Вальдес
Александр Андерсон
Вальтер Kliche
Альдо Bigatti
Хусто Мартинес
Глория Прат
Роберто Airaldi
Моника Крамер
Карлос Bianquet

Комментарии [ редактировать ]
Журнал Люди сказал:

"Только для любителей Сандро."
Кларин сказал:

"С большим мастерством ремесла и неоспоримой понимания для повышения физические характеристики и личность менеджера певицы достиг здесь ... лучший фильм Сандро, все представленные до сих пор."
Manrupe и Портела записи:

"Китч, творческие и, пользуясь лучшим профилем Сандро. Хорошее развлечение для любителей ".


Прикрепления: 1588113.jpg(102Kb)


Сообщение отредактировал murrshako - Среда, 10.12.2014, 14:40
 
murrshakoДата: Вторник, 09.12.2014, 15:24 | Сообщение # 3
Группа: Администраторы
Сообщений: 2053
Репутация: 55
Статус: Offline
Format : MPEG-4
Format profile : Base Media
Codec ID : isom
File size : 1.40 GiB
Duration : 1h 29mn
Overall bit rate mode : Variable
Overall bit rate : 2 239 Kbps
Encoded date : UTC 2013-10-01 17:13:19
Tagged date : UTC 2013-10-01 17:13:19
Writing application : Lavf54.63.104

Video
ID : 1
Format : AVC
Format/Info : Advanced Video Codec
Format profile : Main@L3.2
Format settings, CABAC : Yes
Format settings, ReFrames : 1 frame
Codec ID : avc1
Codec ID/Info : Advanced Video Coding
Duration : 1h 29mn
Bit rate : 2 206 Kbps
Width : 1 280 pixels
Height : 720 pixels
Display aspect ratio : 16:9
Frame rate mode : Constant
Frame rate : 60.000 fps
Color space : YUV
Chroma subsampling : 4:2:0
Bit depth : 8 bits
Scan type : Progressive
Bits/(Pixel*Frame) : 0.040
Stream size : 1.38 GiB (98%)
Writing libra
Audio
ID : 2
Format : AAC
Format/Info : Advanced Audio Codec
Format profile : LC
Codec ID : 40
Duration : 1h 29mn
Duration_FirstFrame : 70ms
Bit rate mode : Variable
Bit rate : 26.5 Kbps
Maximum bit rate : 353 Kbps
Channel(s) : 6 channels
Channel positions : Front: L C R, Side: L R, LFE
Sampling rate : 44.1 KHz
Compression mode : Lossy
Stream size : 17.0 MiB (1%)
Encoded date : UTC 2013-10-01 17:13:19
Tagged date : UTC 2013-10-01 17:13:19

ПЕРЕХОД СКАЧАТЬ ФИЛЬМ В КАЧЕСТВЕ 1280-720 ЗВУК 5.1 ВО ВЕСЬ ЭКРАН 60 FPS

Доступно только для пользователей

СКРИНШОТЫ





Прикрепления: 7059192.jpg(12Kb) · 3212797.jpg(367Kb) · 5696044.jpg(372Kb) · 2902772.jpg(485Kb) · 4881712.jpg(433Kb)


Сообщение отредактировал murrshako - Среда, 10.12.2014, 15:48
 
ЦЫГАНЕ=ROMA=Cingaris=GYPSIES=CIGANOS=吉普賽人=ZINGARI=जिप्सФорум » ЦЫГАНСКИЙ РАЗДЕЛ » ФИЛЬМЫ НА ЦЫГАНСКУЮ ТЕМАТИКУ FULL HD 720P 60 FPS » Gitano (película de 1970) (главная роль Сандро Америка (Перевод Испанский))
Страница 1 из 11
Поиск:

тест скорости интернета
| Copyright MyCorp © 2017 | |