благодарю!!ромалэ
ЯндексЯндекс. ДеньгиХочу такую же кнопку

http://murrshako-rom.ucoz.ru$724.67$724.67Сколько стоит ваш?

Кармен / Carmen (Карлос Саура / Carlos Saura) 1983 - ЦЫГАНЕ=ROMA=Cingaris=GYPSIES=CIGANOS=吉普賽人=ZINGARI=जिप्सФорум
RADIO

GIPSY VOICE
radio

ЦЫГАНСКИЕ СТРУНЫ
радио

Пятница, 26.05.2017, 19:50
Главная
Регистрация
Вход
Цыганский портал!!!приветствую ромалэ!!зачан!!
Приветствую Вас Гость | RSS
[ Новые сообщения · Участники · Правила форума · Поиск · RSS ]
Страница 1 из 11
ЦЫГАНЕ=ROMA=Cingaris=GYPSIES=CIGANOS=吉普賽人=ZINGARI=जिप्सФорум » ЦЫГАНСКИЙ РАЗДЕЛ » ФИЛЬМЫ НА ЦЫГАНСКУЮ ТЕМАТИКУ FULL HD 720P 60 FPS » Кармен / Carmen (Карлос Саура / Carlos Saura) 1983 (Жанр:Музыкальный, Драма, Мелодрама, Музыка)
Кармен / Carmen (Карлос Саура / Carlos Saura) 1983
murrshakoДата: Среда, 17.12.2014, 17:04 | Сообщение # 1
Группа: Администраторы
Сообщений: 2041
Репутация: 55
Статус: Offline



Кармен / Carmen / Criterion.Eclipse Series #6




Студия:Emiliano Piedra, Television Espanola (TVE).
Жанр:Мюзикл, Драма, Мелодрама, Музыка
Год выпуска:1983
Продолжительность:01:41:48
Перевод :Профессиональный (многоголосый закадровый)
Cубтитры:Английские, Русские(3 вида)
Оригинальная аудиодорожка:Испанский
Премьера (мир):6.05.1983
Режиссер:Карлос Саура / Carlos Saura
В ролях:Антонио Гадес, Лаура дель Соль, Пако де Лусия, Марисоль, Кристина Ойос, Хуан Антонио Хименес, Хосе Йепес, Себастьян Морено, Гомес де Херес, Маноло Севилья
Описание: Хореограф Антонио набирает труппу для постановки балета «Кармен». Во время репетиций хореограф поддается чарам настоящей Кармен, которая исполняет главную роль. Музыка и представление так захватывают героев, что правда жизни превращается в спектакль, а само действо ведет к кровавой развязке.

СМОТРЕТЬ В КАЧЕСТВЕ 1280-720 ВО ВЕСЬ ЭКРАН

Доступно только для пользователей

Прикрепления: 9783865.jpg(27Kb)


Сообщение отредактировал murrshako - Четверг, 25.12.2014, 13:22
 
murrshakoДата: Среда, 17.12.2014, 17:37 | Сообщение # 2
Группа: Администраторы
Сообщений: 2041
Репутация: 55
Статус: Offline


Кармен / Carmen (Карлос Саура / Carlos Saura) [1983, Испания, Мюзикл, Драма, Мелодрама, Музыка, DVD9 (Custom)] MVO + Sub Eng, Rus(3 вида) + Original Spa / Criterion.Eclipse Series #6


Страна:Испания
Студия:Emiliano Piedra, Television Espanola (TVE).
Жанр:Мюзикл, Драма, Мелодрама, Музыка
Год выпуска:1983
Продолжительность:01:41:48
Перевод :Профессиональный (многоголосый закадровый)
Cубтитры:Английские, Русские(3 вида)
Оригинальная аудиодорожка:Испанский
Премьера (мир):6.05.1983
Доп. информация:
Исходник найден в сети.
Профессиональный (многоголосый, закадровый) и русские субтитры1
взяты из раздачи rulle1-http://rutracker.org/forum/viewtopic.php?t=1834031.
Изначально русская дорожка дутая, переведена в AC3, 2 ch.
Русские субтитры 2-(mea Ork), 3-(subtitry)
взяты из раздачи-Гость-http://rutracker.org/forum/viewtopic.php?t=445072.
Реавторинг Нордер.
Огромное Спасибо Всем, без чьей помощи этот релиз не состоялся бы!
Сценарий:Карлос Саура, Антонио Гадес, Проспер Мериме
Продюсер:Эмильяно Пьедра
Оператор:Теодоро Эскамилья
Композитор:Пако де Лусия
Художник:Феликс Мурсия, Тереза Ниэто
Монтаж:Педро дель Рей

Меню:Английский, статичное, неозвученное.
Сэмпл:http://multi-up.com/1011962
Тип релиза:DVDх9 (Custom)
Контейнер:DVD-Video
Видео:NTSC 16:9 (720x480) VBR, Auto Letterboxed, 8345 Кбит/сек, 29,970 кадров/сек
Аудио 1:Русский:AC3, 2 ch, 48.0 KHz, 192 Кбит/сек
Аудио 2:Испанский:AC3, 1 ch, 48.0 KHz, 192 Кбит/сек / (Оригинал)
Формат субтитров:prerendered (DVD/IDX+SUB)

Статус: √ проверено
.torrent скачан: 131 раз
Размер: 6.38 GB

Доступно только для пользователей


Сообщение отредактировал murrshako - Среда, 17.12.2014, 17:42
 
murrshakoДата: Среда, 17.12.2014, 17:56 | Сообщение # 3
Группа: Администраторы
Сообщений: 2041
Репутация: 55
Статус: Offline






Кармен / Carmen (Карлос Саура / Carlos Saura) [1983, Испания, драма, мюзикл, DVDRip] MVO + Sub Rus + Original Spa



Перевод: Профессиональный (многоголосый закадровый)
Cубтитры: русские
Оригинальная аудиодорожка: испанский

Режиссер: Карлос Саура / Carlos Saura

В ролях: Антонио Гадес, Лаура дель Соль, Пако де Лусиа, Кристина Ойос, Хуан Антонио Хименес, Хосе Йепес, Себастиан Морено, Марисоль, Гомес де Жерес,Маноло Севилья, Антонио Солера, Мануэль Родригес, Лоренцо Вирседа

Описание: Хореограф Антонио набирает труппу для постановки балета «Кармен». Во время репетиций хореограф поддается чарам настоящей Кармен, которая исполняет главную роль. Музыка и представление так захватывают героев, что правда жизни превращается в спектакль, а само действо ведет к кровавой развязке.

Качество видео: DVDRip
Формат видео: AVI

Видео: 672x400 (1.68:1), 25 fps, XviD build 73 ~1691 kbps avg, 0.25 bit/pixel
Аудио: 48 kHz, AC3 Dolby Digital, 3/2 (L,C,R,l,r) + LFE ch, ~448 kbps - многоголосый
Аудио: 48 kHz, AC3 Dolby Digital, 3/2 (L,C,R,l,r) + LFE ch, ~448 kbps - оригинал (отдельным файлом)

Статус: √ проверено
.torrent скачан: 516 раз
Размер: 1.76 GB

Доступно только для пользователей
Прикрепления: 8242660.jpg(121Kb)


Сообщение отредактировал murrshako - Четверг, 25.12.2014, 13:21
 
murrshakoДата: Четверг, 25.12.2014, 21:08 | Сообщение # 4
Группа: Администраторы
Сообщений: 2041
Репутация: 55
Статус: Offline
Complete name : D:\Кассандра 101-150\60FPS\КАРМЕН CARMEN (КАРЛОС САУРА CARLOS SAURA) 1983.mp4
Format : MPEG-4
Format profile : Base Media
Codec ID : isom
File size : 1.77 GiB
Duration : 1h 37mn
Overall bit rate : 2 602 Kbps
Encoded date : UTC 2014-10-07 11:45:38
Tagged date : UTC 2014-10-07 11:45:38
Writing application : Lavf54.63.104

Video
ID : 1
Format : AVC
Format/Info : Advanced Video Codec
Format profile : Main@L3.2
Format settings, CABAC : Yes
Format settings, ReFrames : 1 frame
Codec ID : avc1
Codec ID/Info : Advanced Video Coding
Duration : 1h 37mn
Bit rate : 2 206 Kbps
Width : 1 280 pixels
Height : 720 pixels
Display aspect ratio : 16:9
Frame rate mode : Constant
Frame rate : 60.000 fps
Color space : YUV
Chroma subsampling : 4:2:0
Bit depth : 8 bits
Scan type : Progressive
Bits/(Pixel*Frame) : 0.040
Stream size : 1.50 GiB (85%)
Writing library : x264 core 129
Encoding settings : cabac=1 / ref=1 / deblock=1:0:0 / anal

Audio
ID : 2
Format : AAC
Format/Info : Advanced Audio Codec
Format profile : LC
Codec ID : 40
Duration : 1h 37mn
Duration_FirstFrame : 64ms
Bit rate mode : Constant
Bit rate : 384 Kbps
Channel(s) : 6 channels
Channel positions : Front: L C R, Side: L R, LFE
Sampling rate : 48.0 KHz
Compression mode : Lossy
Stream size : 268 MiB (15%)
Encoded date : UTC 2014-10-07 11:45:38
Tagged date : UTC 2014-10-07 11:45:38

СКАЧАТЬ ФИЛЬМ В КАЧЕСТВЕ 1280-720Р ВО ВЕСЬ ЭКРАН СО ЗВУКОМ 5.1 60FPS

ПЕРЕХОД -НАЙТИ ПО СПИСКУ

Доступно только для пользователей





Прикрепления: 7058648.jpg(457Kb) · 3790489.jpg(485Kb) · 6306958.jpg(526Kb) · 8695838.jpg(505Kb) · 7210815.jpg(516Kb)


Сообщение отредактировал murrshako - Четверг, 25.12.2014, 21:17
 
ЦЫГАНЕ=ROMA=Cingaris=GYPSIES=CIGANOS=吉普賽人=ZINGARI=जिप्सФорум » ЦЫГАНСКИЙ РАЗДЕЛ » ФИЛЬМЫ НА ЦЫГАНСКУЮ ТЕМАТИКУ FULL HD 720P 60 FPS » Кармен / Carmen (Карлос Саура / Carlos Saura) 1983 (Жанр:Музыкальный, Драма, Мелодрама, Музыка)
Страница 1 из 11
Поиск:

тест скорости интернета
| Copyright MyCorp © 2017 | |