благодарю!!ромалэ
ЯндексЯндекс. ДеньгиХочу такую же кнопку

http://murrshako-rom.ucoz.ru$724.67$724.67Сколько стоит ваш?

Грозовой перевал(серия фильмов) - ЦЫГАНЕ=ROMA=Cingaris=GYPSIES=CIGANOS=吉普賽人=ZINGARI=जिप्सФорум
RADIO

GIPSY VOICE
radio

ЦЫГАНСКИЕ СТРУНЫ
радио

Четверг, 25.05.2017, 13:31
Главная
Регистрация
Вход
Цыганский портал!!!приветствую ромалэ!!зачан!!
Приветствую Вас Гость | RSS
[ Новые сообщения · Участники · Правила форума · Поиск · RSS ]
Страница 1 из 212»
ЦЫГАНЕ=ROMA=Cingaris=GYPSIES=CIGANOS=吉普賽人=ZINGARI=जिप्सФорум » ЦЫГАНСКИЙ РАЗДЕЛ » ФИЛЬМЫ НА ЦЫГАНСКУЮ ТЕМАТИКУ FULL HD 720P 60 FPS » Грозовой перевал(серия фильмов) (по мотивам книги Эмили Бронте)
Грозовой перевал(серия фильмов)
murrshakoДата: Пятница, 02.01.2015, 14:47 | Сообщение # 1
Группа: Администраторы
Сообщений: 2041
Репутация: 55
Статус: Offline

Грозовой перевал / Wuthering Heights (Роберт Фуэст / Robert Fuest) [1970, Великобритания, драма, DVD9 (Custom)] DVO + Sub Eng + Original Eng


Страна: Великобритания
Жанр: драма
Год выпуска: 1970
Продолжительность: 01:40:11

Перевод: Профессиональный (двухголосый закадровый)

Оригинальная аудиодорожка: английский

Режиссер: Роберт Фуэст / Robert Fuest

В ролях: Анна Калдер-Маршалл, Тимоти Далтон, Гарри Эндрюс, Памела Браун, Джуди Корнвэлл, James Cossins, Розали Кратчли, Хилари Хит, Джулиан Гловер, Хью Гриффит

Описание:Когда-то старый хозяин Грозового Перевала, мистер Эрншо, жил здесь со своей женой и двумя детьми — Кэтрин и Хиндли. Однажды мистер Эрншо отправился в Ливерпуль, и пообещал привезти Хиндли скрипку, а Кэти хлыстик для верховой езды. Хозяина не было дома всего три дня, однако дети не могли дождаться его приезда и обещанных подарков. Когда, наконец, мистер Эрншо прибыл, наступил момент, которого никто не мог ожидать. Перед домочадцами явился «черноволосый оборвыш», маленький цыган — грязный и голодный сирота. Скрипку и хлыстик дети тоже получили, но все подарки были поломаны. Мальчика решил приютить и принять как родного сына мистер Эрншо.

Цыгана из Ливерпуля назвали Хитклифом. Это прозвище служило ему и именем, и фамилией. Так он вступил в семью Эрншо. Хиндли сразу невзлюбил новоиспеченного брата, боясь, что чужой ребенок сможет украсть у него внимание родителей и законные права в доме. Однако Кэти подружилась с Хитклифом, и они стали неразлучны. Мальчик с самого начала внес в дом дух раздора. Не прошло и двух лет после появления найденыша, как миссис Эрншо не стало. Хиндли в свою очередь «все больше ожесточался, размышляя о своих обидах».

.....................................
Очень интересный фильм Роберта Фуеста и его очень оригинальное название Wuthering Heights (1970). Мелодрама, Грозовой перевал, а по совместительству Драматическое Приключение откроет перед нами занавес настоящей дружбы и огромной любви между Кэтрин и Хитклифф, которые выросли в одном доме, среди дикой природы. Они – дети одного отца, который их воспитал, но между ними, так как есть любовь, так присутствует и социальное неравенство, которое стает преградой их отношениям. Кэтрин живет в богатстве, а Хинтклифф очень бедный и у него нет ничего, кроме любви к Кэтрин. Очень хорошая и интересная мелодрама с жизненными ситуациями, которые, несмотря на временное пространство, впечатляет своим сюжетом.
Великолепная история снятая хорошим режиссёром, что еще нужно для приятного время провождения. Смотреть фильмы онлайн на нашем сайте, и вы насладитесь хорошим фильмом, который даст море эмоций. Вы непременно не пожалеете о том, что выбрали этот фильм. Качество не заставит усомниться в выборе. Вы останетесь довольны. Мы это гарантируем. Все что нужно это нажать на плэй и насладится фильмом.
Приятного вам просмотра на нашем сайте


СМОТРЕТЬ В КАЧЕСТВЕ 1280-720Р ВО ВЕСЬ ЭКРАН БЕЗ ЧЕРНЫХ ПОЛОС

Доступно только для пользователей

АЛЬТЕРНАТИВА

Доступно только для пользователей



Cубтитры: английские, немецкие, французские, итальянские, испанские, голландские, шведские, финские, норвежские, датские
Оригинальная аудиодорожка: английский

Режиссер: Роберт Фуэст / Robert Fuest

В ролях: Анна Калдер-Маршалл, Тимоти Далтон, Гарри Эндрюс, Памела Браун, Джуди Корнвэлл, James Cossins, Розали Кратчли, Хилари Хит, Джулиан Гловер, Хью Гриффит

Описание: Готическая драма, неоднократно воплощавшаяся на экране, рассказывает историю двух поколений семейных кланов Эрншоу и Линтон, о сложном переплетении их жизней и судеб и о роковом проклятии двух возлюбленных - Хитклиффа и Кэти.

Доп. информация: релиз MGM

кроме звука в релиз изменений не вносилось
(русский вставлен вместо польского)

меню не корректировалось, переключение - с пульта

софт - PGCDemux, SFSE, Audition, Muxman, VobBlanker

за звук - спасибо jurasiom

Меню: статичное, неозвученное

Сэмпл: http://rusfolder.com/42412877

Тип релиза: DVD9 (Custom)
Контейнер: DVD-Video

Видео: PAL 720x576 16:9 anamorph
Аудио: DD2.0 русский (192 kbps)
Аудио 2: DD2.0 английский (192 kbps)
Аудио 3: DD2.0 немецкий (192 kbps)
Аудио 4: DD2.0 французский (192 kbps)
Аудио 5: DD2.0 испанский (192 kbps)
Формат субтитров: prerendered (DVD/IDX+SUB)




Статус: √ проверено
.torrent скачан: 91 раз
Размер: 5.26 GB

Доступно только для пользователей
Прикрепления: 8614949.jpg(194Kb) · 9845809.jpg(40Kb) · 5147066.jpg(37Kb)


Сообщение отредактировал murrshako - Четверг, 08.01.2015, 13:24
 
murrshakoДата: Среда, 07.01.2015, 21:20 | Сообщение # 2
Группа: Администраторы
Сообщений: 2041
Репутация: 55
Статус: Offline


Complete name : D:\Кассандра 101-150\GROZOVOY PEREVAL 1992.mp4
Format : MPEG-4
Format profile : Base Media
Codec ID : isom
File size : 1.67 GiB
Duration : 1h 42mn
Overall bit rate mode : Variable
Overall bit rate : 2 338 Kbps
Encoded date : UTC 2014-10-07 11:45:38
Tagged date : UTC 2014-10-07 11:45:38
Writing application : Lavf54.63.104

Video
ID : 1
Format : AVC
Format/Info : Advanced Video Codec
Format profile : Main@L3.2
Format settings, CABAC : Yes
Format settings, ReFrames : 1 frame
Codec ID : avc1
Codec ID/Info : Advanced Video Coding
Duration : 1h 42mn
Bit rate : 2 206 Kbps
Width : 1 280 pixels
Height : 720 pixels
Display aspect ratio : 16:9
Frame rate mode : Constant
Frame rate : 60.000 fps
Color space : YUV
Chroma subsampling : 4:2:0
Bit depth : 8 bits
Scan type : Progressive
Bits/(Pixel*Frame) : 0.040
Stream size : 1.58 GiB (95%)
Writing library : x264 core 129
Encoding settings : cabac=1 / ref=1 / deblock=1:0:0 / analyse=0x1:0x131 / me=d

Audio
ID : 2
Format : AAC
Format/Info : Advanced Audio Codec
Format profile : LC
Codec ID : 40
Duration : 1h 42mn
Duration_FirstFrame : 64ms
Bit rate mode : Variable
Bit rate : 114 Kbps
Maximum bit rate : 384 Kbps
Channel(s) : 6 channels
Channel positions : Front: L C R, Side: L R, LFE
Sampling rate : 48.0 KHz
Compression mode : Lossy
Stream size : 83.5 MiB (5%)
Encoded date : UTC 2014-10-07 11:45:38
Tagged date : UTC 2014-10-07 11:45:38
СКАЧАТЬ ФИЛЬМ В КАЧЕСТВЕ 1280-720Р СО ЗВУКОМ 5.1 И 60 FPS ВО ВЕСЬ ЭКРАН .БЕЗ ЧЕРНЫХ ПОЛОС

ПЕРЕХОД СКАЧАТЬ

СКРИНШОТЫ







Прикрепления: 7397256.jpg(298Kb) · 4476125.jpg(316Kb) · 4091213.jpg(322Kb) · 1494189.jpg(302Kb) · 1625665.jpg(348Kb)


Сообщение отредактировал murrshako - Четверг, 08.01.2015, 12:58
 
murrshakoДата: Среда, 07.01.2015, 21:26 | Сообщение # 3
Группа: Администраторы
Сообщений: 2041
Репутация: 55
Статус: Offline
Грозовой перевал / Wuthering heights (Питер Космински / Peter Kosminsky) [1992 г., Мелодрама, DVD5 (Custom)] MVO (тот самый перевод ОРТ)

Год выпуска: 1992
Страна: Великобритания
Жанр: Мелодрама
Продолжительность: 1 час 46 минут
Перевод: Профессиональный (многоголосый, закадровый) тот самый перевод ОРТ!
Русские субтитры: нет

Режиссер: Питер Космински / Peter Kosminsky

В ролях: Жюльетт Бинош
Ральф Файнс
Джанет МакТир
Софи Уорд
Саймон Шеперд
Джереми Нортэм
Саймон Уорд
Дик Салливан
Роберт Демеджер

Описание: Самый лучший фильм о настоящей любви. Той самой, ради которой стоит жить. Или умереть.
------------------------------------------------------------------------------------------------------------------------------
"Кэтрин Эрншоу!
Пока я жив – тебе не будет покоя!
Ты сказала, что я убил тебя… Так отомсти мне!
Я знаю – гонимые души живут среди нас. Ну так будь со мной всегда! В любом обличии…
Сведи меня с ума!
Только не бросай в этой бездне, где нет тебя…
Господи! Как мне жить, если у меня отняли жизнь?! Как жить, если отняли душу....."
------------------------------------------------------------------------------------------------------------------------------
Вам стоит смотреть этот фильм лишь в том случае, если Вы способны плакать. Если у Вас есть сердце.
И если бы мне сказали, что жить остаётся ровно 105 минут, я бы посмотрел этот фильм. Он того стоит.

Доп. информация:
Это самая лучшая экранизация.
Гениальнейшая переработка примитивненькой, в общем-то книжонки. По крайней мере я читал книгу после просмотра фильма, и книга меня разочаровала. А вот фильм - величайший шедевр. Я бы всей съёмочной группе памятник из чистого золота поставил. Наверное, это единственный случай, когда фильм - намного лучше первоисточника. Обычно бывает наоборот

СМОТРЕТЬ В КАЧЕСТВЕ 1280-720 ВО ВЕСЬ ЭКРАН

Доступно только для пользователей

АЛЬТЕРНАТИВА

Доступно только для пользователей



Видеоряд идентичен http://rutracker.org/forum/viewtopic.php?t=297012
Аудиодорожка - с самым лучшим переводом и подбором голосов. С первого канала, в общем.
Да-да, та самая... Которой ни у кого нет вообще.
Синхронизовал исключительно для себя, убив кучу времени. Выкладываю здесь лишь по о-о-очень большим просьбам. А не рейтинга ради.

Качество: DVD5
Формат: DVD Video
Видео кодек: MPEG2
Аудио кодек: AC3
Видео: PAL 16:9 (720x576) VBR
Аудио: Русский DD 2.0 448 кб/с - ПЕРЕВОД ОРТ (он же "Селена интернешнл") - тот самый! Самый лучший!

Статус: # сомнительно
.torrent скачан: 8236 раз
Размер: 3.95 GB

Доступно только для пользователей
Прикрепления: 4525838.jpg(215Kb)


Сообщение отредактировал murrshako - Четверг, 08.01.2015, 13:22
 
murrshakoДата: Среда, 07.01.2015, 21:29 | Сообщение # 4
Группа: Администраторы
Сообщений: 2041
Репутация: 55
Статус: Offline
150\GROZOVOY PEREVAL 1970.mp4
Format : MPEG-4
Format profile : Base Media
Codec ID : isom
File size : 1.76 GiB
Duration : 1h 43mn
Overall bit rate mode : Variable
Overall bit rate : 2 429 Kbps
Encoded date : UTC 2014-10-07 11:45:38
Tagged date : UTC 2014-10-07 11:45:38
Writing application : Lavf54.63.104

Video
ID : 1
Format : AVC
Format/Info : Advanced Video Codec
Format profile : Main@L3.2
Format settings, CABAC : Yes
Format settings, ReFrames : 1 frame
Codec ID : avc1
Codec ID/Info : Advanced Video Coding
Duration : 1h 43mn
Bit rate : 2 206 Kbps
Width : 1 280 pixels
Height : 720 pixels
Display aspect ratio : 16:9
Frame rate mode : Constant
Frame rate : 60.000 fps
Color space : YUV
Chroma subsampling : 4:2:0
Bit depth : 8 bits
Scan type : Progressive
Bits/(Pixel*Frame) : 0.040
Stream size : 1.59 GiB (91%)
Writing library : x264 core 129
Encoding settings

ID : 2
Format : AAC
Format/Info : Advanced Audio Codec
Format profile : LC
Codec ID : 40
Duration : 1h 43mn
Duration_FirstFrame : 64ms
Bit rate mode : Variable
Bit rate : 214 Kbps
Maximum bit rate : 384 Kbps
Channel(s) : 6 channels
Channel positions : Front: L C R, Side: L R, LFE
Sampling rate : 48.0 KHz
Compression mode : Lossy
Stream size : 158 MiB (9%)
Encoded date : UTC 2014-10-07 11:45:38
Tagged date : UTC 2014-10-07 11:45:38

СКАЧАТЬ ФИЛЬМ В КАЧЕСТВЕ 1280-720Р СО ЗВУКОМ 5.1 И 60 FPS ВО ВЕСЬ ЭКРАН .БЕЗ ЧЕРНЫХ ПОЛОС

переход скачать фильм

СКРИНШОТЫ






Прикрепления: 6050481.jpg(368Kb) · 6202166.jpg(397Kb) · 4617346.jpg(358Kb) · 8487737.jpg(294Kb)


Сообщение отредактировал murrshako - Четверг, 08.01.2015, 12:59
 
murrshakoДата: Четверг, 08.01.2015, 13:06 | Сообщение # 5
Группа: Администраторы
Сообщений: 2041
Репутация: 55
Статус: Offline



Оскар, 1940год

Победитель (1):

Лучшая работа оператора (ч/б фильмы)

Грозовой перевал / Wuthering Heights (Уильям Уайлер / William Wyler) [1939, США, драма, мелодрама, WEB-DL 720p] AVO (Медведев) + VO (Савченко) + Sub Eng + Original Eng


Грозовой перевал / Wuthering Heights

КЛАССИКА МИРОВОГО КИНО
pic

Страна: pic США
Студия: Samuel Goldwyn Company
Жанр: драма, мелодрама
Год выпуска: 1939
Продолжительность: 01:44:02

Перевод 1: Авторский (одноголосый закадровый) Алексей Медведев
Перевод 2: Одноголосый (закадровый) - А. Савченко
Cубтитры: английские
Оригинальная аудиодорожка: английский

Режиссер: Уильям Уайлер / William Wyler

В ролях: Мерл Оберон /Merle Oberon/, Лоуренс Оливье /Laurence Olivier/, Дэвид Найвен /David Niven/, Доналд Крисп /Donald Crisp/, Флора Робсон /Flora Robson/, Хью Уильямс /Hugh Williams/, Джералдин Фицджералд /Geraldine Fitzgerald/, Лео Дж. Кэрролл /Leo G. Carroll/, Сесил Хамфриз /Cecil Humphreys/, Майлз Мандер /Miles Mander/

Описание: Завораживающая, прекрасная черно-белая экранизация одноименного трагического романа Эмили Бронте. Оливье в пике периода романтических ролей сделал все, чего можно было ожидать, но Оберон относительно бледновата из-за отсутствия ярко выраженной страсти. По мнению критиков, в этой картине наилучшим образом передана атмосфера романа. "Оскар" за лучшую операторскую работу. Номинации за лучшую картину, лучшую мужскую роль (Лоренс Оливье), лучшую женскую роль второго плана (Джералдин Фицджералд), лучшую режиссуру (Уильям Уайлер), лучший сценарий, музыкальное сопровождение, лучшую работу художника. (Иванов М.)

Альтернативное описание: Фильм «Грозовой перевал», снятый по бестселлеру мировой литературы роману Эмили Бронте (Emily Brontë) - стал золотой классикой Голливуда. Картина рассказывает историю жизни двух поколений семейных кланов Эрншоу и Линтон, и о трагической любви Хитклиффа (Лоуренс Оливье) и Кэти (Мерл Оберон). Кинолента блестяще воплотила на экране сложное переплетение сюжетных линий романа. Таинственная атмосфера средневековых замков и мистические образы, окружают героев и по-прежнему не подвластны времени. В этой первой и, возможно, самой лучшей экранизации романа, поставленной режиссером Уильямом Уайлером, снялись непревзойденные звезды мирового кино: Лоуренс Оливье, Мерл Оберон, Дэвид Нивен, Джералдин Фицджеральд. А благодаря операторской работе Грегга Толэнда фильм получил премию «Оскар». Романом «Грозовой перевал» зачитывалось не одно поколение женщин и продолжают зачитываться сейчас. Фильм же, как и книга не стареет, как не стареет истинная любовь…
--------------------------------------------------
Оператор: Грегг Толэнд /Gregg Toland/
Сценарист: Бен Хехт /Ben Hecht/, Чарлз МакАртур /Charles MacArthur/
Продюсер: Сэмюэл Голдуин /Samuel Goldwyn/
Монтажер: Дэниэл Мэнделл /Daniel Mandell/
Композитор: Элфред Ньюмэн /Alfred Newman/
Художник: Джеймс Васеви /James Vasevi/
Костюмы: Омар Кайам /Omar Kiam/

Награды:

Оскар, 1940год
pic
Победитель (1):

Лучшая работа оператора (ч/б фильмы)

Номинации (7):
* Лучший фильм
* Лучшая мужская роль (Лоуренс Оливье)
* Лучшая женская роль второго плана (Джеральдин Фицджералд)
* Лучший режиссер (Уильям Уайлер)
* Лучший адаптированный сценарий
* Лучшая работа художника
* Лучший оригинальный саундтрек

СМОТРЕТЬ ФИЛЬМ ОНЛАЙН В КАЧЕСТВЕ 480Р



СМОТРЕТЬ В КАЧЕСТВЕ 1280-720Р

Доступно только для пользователей

МОЖНО ВЫБРАТЬ КАЧЕСТВО ИЗОБРАЖЕНИЯ





Тип релиза: WEB-DL 720p
Контейнер: MKV

Видео: 960x720; 23.976 fps; ~ 3 870 Kbps; 0.234 Bits/Pixel
Аудио 1: Russian - 48 kHz, AC3 Dolby Digital, (1 ch), ~ 96 kbps - Алексей Медведев
Аудио 2: Russian - 48 kHz, AC3 Dolby Digital, (1 ch), ~ 192 kbps - А. Савченко
Аудио 3: English - 48 kHz, AC3 Dolby Digital, 2/0 (L,R) ch, ~192 kbps - Original
Формат субтитров: UTF-8

Статус: √ проверено
.torrent скачан: 1041 раз
Размер: 3.23 GB

Доступно только для пользователей
Прикрепления: 7055797.png(8Kb) · 3737302.png(361Kb) · 3526044.jpg(300Kb)


Сообщение отредактировал murrshako - Четверг, 08.01.2015, 15:22
 
ЦЫГАНЕ=ROMA=Cingaris=GYPSIES=CIGANOS=吉普賽人=ZINGARI=जिप्सФорум » ЦЫГАНСКИЙ РАЗДЕЛ » ФИЛЬМЫ НА ЦЫГАНСКУЮ ТЕМАТИКУ FULL HD 720P 60 FPS » Грозовой перевал(серия фильмов) (по мотивам книги Эмили Бронте)
Страница 1 из 212»
Поиск:

тест скорости интернета
| Copyright MyCorp © 2017 | |