благодарю!!ромалэ
ЯндексЯндекс. ДеньгиХочу такую же кнопку

http://murrshako-rom.ucoz.ru$724.67$724.67Сколько стоит ваш?

Клан Реалити-шоу ICTV 2014 - ЦЫГАНЕ=ROMA=Cingaris=GYPSIES=CIGANOS=吉普賽人=ZINGARI=जिप्सФорум
RADIO

GIPSY VOICE
radio

ЦЫГАНСКИЕ СТРУНЫ
радио

Понедельник, 20.11.2017, 02:54
Главная
Регистрация
Вход
Цыганский портал!!!приветствую ромалэ!!зачан!!
Приветствую Вас Гость | RSS
[ Новые сообщения · Участники · Правила форума · Поиск · RSS ]
Страница 1 из 212»
ЦЫГАНЕ=ROMA=Cingaris=GYPSIES=CIGANOS=吉普賽人=ZINGARI=जिप्सФорум » ЦЫГАНСКИЙ РАЗДЕЛ » ФИЛЬМЫ НА ЦЫГАНСКУЮ ТЕМАТИКУ FULL HD 720P 60 FPS » Клан Реалити-шоу ICTV 2014 (спецпроект телеканала ICTV Украина)
Клан Реалити-шоу ICTV 2014
murrshakoДата: Суббота, 20.12.2014, 14:29 | Сообщение # 1
Группа: Администраторы
Сообщений: 2053
Репутация: 55
Статус: Offline



Клан реалити-шоу ICTV УКРАИНА 2014год
8 серий по 45 минут


Клан это спецпроект телеканала ICTV, который внятно объяснить что есть разные национальности в Украине и ромалы главная загадка , которая длится годами,а их традиции переходят в поколения. Цыганы, вот главные герои проекта. именно их жизнь будут снимать авторы. Главными героями становятся семья цыганского барона Чераря Артура , который и гостеприимно решает познакомить со всеми тонкостями жизни его табора и покажет как он и его семья живет. Конечно тут есть Бароны и нищие, но все они дружны и готовы стоять до самой смерти. Деньги золото и украшение вот основная валюта цыган, все же есть и воры , есть и гадалки , все это не сказки . Тут женой становится в 12 лет и рожает в 13 лет все же это только известные факты но есть и те о которых нам расскажут сами цыгане.

Год: 2014

Режиссер: ICTV





1-я серия Добро пожаловать в цыганскую столицу Сороки - Клан.
2-я серия Разборки цыганской молодежи - Клан.
3-я серия Цыганский барон выходит к народу - Клан.
4-я серия Страх и паника в доме барона - Клан.
5-я серия Цыганского барона обвинили в крышевании наркобизнеса - Клан,
6-я серия Настоящая цыганская свадьба! - Клан,
7-я серия Возвращение блудного зятя - Клан,
8-я серия Тайны завещания цыганского барона - Клан,








Прикрепления: 3508530.jpg(52Kb) · 6387467.jpg(368Kb) · 8527443.jpg(458Kb) · 5894117.jpg(483Kb) · 4277483.jpg(451Kb)


Сообщение отредактировал murrshako - Суббота, 20.12.2014, 14:57
 
murrshakoДата: Суббота, 20.12.2014, 14:50 | Сообщение # 2
Группа: Администраторы
Сообщений: 2053
Репутация: 55
Статус: Offline

СМОТРЕТЬ 1-Ю СЕРИЮ ФИЛЬМА В КАЧЕСТВЕ 1280-720Р ВО ВЕСЬ ЭКРАН БЕЗ ЧЕРНЫХ ПОЛОС

1-я серия Добро пожаловать в цыганскую столицу Сороки - Клан.

Доступно только для пользователей




Complete name : D:\Кассандра 101-150\60FPS\реалитишоу Клан 1-я серия Добро пожаловать в столицу цыган г.Сороки-60FPS.mp4
Format : MPEG-4
Format profile : Base Media
Codec ID : isom
File size : 709 MiB
Duration : 42mn 36s
Overall bit rate mode : Variable
Overall bit rate : 2 324 Kbps
Encoded date : UTC 2014-10-07 11:45:38
Tagged date : UTC 2014-10-07 11:45:38
Writing application : Lavf54.63.104

Video
ID : 1
Format : AVC
Format/Info : Advanced Video Codec
Format profile : Main@L3.2
Format settings, CABAC : Yes
Format settings, ReFrames : 1 frame
Codec ID : avc1
Codec ID/Info : Advanced Video Coding
Duration : 42mn 36s
Bit rate : 2 206 Kbps
Width : 1 280 pixels
Height : 720 pixels
Display aspect ratio : 16:9
Frame rate mode : Constant
Frame rate : 60.000 fps
Color space : YUV
Chroma subsampling : 4:2:0
Bit depth : 8 bits
Scan type : Progressive
Bits/(Pixel*Frame) : 0.040
Stream size : 672 MiB (95%)
Writing library : x264 core 129
Encoding settings
Audio
ID : 2
Format : AAC
Format/Info : Advanced Audio Codec
Format profile : LC
Codec ID : 40
Duration : 42mn 36s
Duration_FirstFrame : 64ms
Bit rate mode : Variable
Bit rate : 112 Kbps
Maximum bit rate : 384 Kbps
Channel(s) : 6 channels
Channel positions : Front: L C R, Side: L R, LFE
Sampling rate : 48.0 KHz
Compression mode : Lossy
Stream size : 34.1 MiB (5%)
Encoded date : UTC 2014-10-07 11:45:38
Tagged date : UTC 2014-10-07 11:45:38

Доступно только для пользователей

СКРИНШОТЫ








Прикрепления: 6046968.jpg(509Kb) · 3260688.jpg(421Kb) · 6423589.jpg(434Kb) · 2464048.jpg(417Kb) · 8379241.jpg(348Kb)


Сообщение отредактировал murrshako - Суббота, 20.12.2014, 15:02
 
murrshakoДата: Вторник, 23.12.2014, 15:54 | Сообщение # 3
Группа: Администраторы
Сообщений: 2053
Репутация: 55
Статус: Offline

СМОТРЕТЬ ОНЛАЙН 2 СЕРИЮ РЕАЛИТИ ШОУ =КЛАН=В КАЧЕСТВЕ 1280-720Р ВО ВЕСЬ ЭКРАН БЕЗ ЧЕРНЫХ ПОЛОС
Разборки цыганской молодежи - Клан. Выпуск 2






150\60FPS\murrshako42-2.mp4
Format : MPEG-4
Format profile : Base Media
Codec ID : isom
File size : 726 MiB
Duration : 43mn 38s
Overall bit rate mode : Variable
Overall bit rate : 2 326 Kbps
Encoded date : UTC 2014-10-07 11:45:38
Tagged date : UTC 2014-10-07 11:45:38
Writing application : Lavf54.63.104

Video
ID : 1
Format : AVC
Format/Info : Advanced Video Codec
Format profile : Main@L3.2
Format settings, CABAC : Yes
Format settings, ReFrames : 1 frame
Codec ID : avc1
Codec ID/Info : Advanced Video Coding
Duration : 43mn 38s
Bit rate : 2 206 Kbps
Width : 1 280 pixels
Height : 720 pixels
Display aspect ratio : 16:9
Frame rate mode : Constant
Frame rate : 60.000 fps
Color space : YUV
Chroma subsampling : 4:2:0
Bit depth : 8 bits
Scan type : Progressive
Bits/(Pixel*Frame) : 0.040
Stream size : 689 MiB (95%)
Writing library : x264 core 129
Encoding settings : cabac=1 / ref=1 / deblock=1:0:0 / anal

Audio
ID : 2
Format : AAC
Format/Info : Advanced Audio Codec
Format profile : LC
Codec ID : 40
Duration : 43mn 38s
Duration_FirstFrame : 64ms
Bit rate mode : Variable
Bit rate : 111 Kbps
Maximum bit rate : 384 Kbps
Channel(s) : 6 channels
Channel positions : Front: L C R, Side: L R, LFE
Sampling rate : 48.0 KHz
Compression mode : Lossy
Stream size : 34.6 MiB (5%)
Encoded date : UTC 2014-10-07 11:45:38
Tagged date : UTC 2014-10-07 11:45:38

СКАЧАТЬ ФИЛЬМ В КАЧЕСТВЕ 1280-720Р СО ЗВУКОМ 5.1 И 60 FPS ВО ВЕСЬ ЭКРАН .БЕЗ ЧЕРНЫХ ПОЛОС

Доступно только для пользователей

СКРИНШОТЫ











Прикрепления: 5574306.jpg(421Kb) · 6553529.jpg(391Kb) · 6908931.jpg(474Kb) · 8453525.jpg(445Kb) · 9259666.jpg(474Kb)


Сообщение отредактировал murrshako - Вторник, 23.12.2014, 16:29
 
murrshakoДата: Вторник, 23.12.2014, 16:41 | Сообщение # 4
Группа: Администраторы
Сообщений: 2053
Репутация: 55
Статус: Offline

Цыганский барон выходит к народу - Клан. Выпуск 3
СМОТРЕТЬ ОНЛАЙН 3 СЕРИЮ РЕАЛИТИ ШОУ =КЛАН=В КАЧЕСТВЕ 1280-720Р ВО ВЕСЬ ЭКРАН БЕЗ ЧЕРНЫХ ПОЛОС







Format : MPEG-4
Format profile : Base Media
Codec ID : isom
File size : 687 MiB
Duration : 41mn 5s
Overall bit rate mode : Variable
Overall bit rate : 2 339 Kbps
Encoded date : UTC 2014-10-07 11:45:38
Tagged date : UTC 2014-10-07 11:45:38
Writing application : Lavf54.63.104

Video
ID : 1
Format : AVC
Format/Info : Advanced Video Codec
Format profile : Main@L3.2
Format settings, CABAC : Yes
Format settings, ReFrames : 1 frame
Codec ID : avc1
Codec ID/Info : Advanced Video Coding
Duration : 41mn 5s
Bit rate : 2 206 Kbps
Width : 1 280 pixels
Height : 720 pixels
Display aspect ratio : 16:9
Frame rate mode : Constant
Frame rate : 60.000 fps
Color space : YUV
Chroma subsampling : 4:2:0
Bit depth : 8 bits
Scan type : Progressive
Bits/(Pixel*Frame) : 0.040
Stream size : 652 MiB (95%)
Writing library : x264 core 129
Encoding settings

Audio
ID : 2
Format : AAC
Format/Info : Advanced Audio Codec
Format profile : LC
Codec ID : 40
Duration : 41mn 5s
Duration_FirstFrame : 64ms
Bit rate mode : Variable
Bit rate : 111 Kbps
Maximum bit rate : 384 Kbps
Channel(s) : 6 channels
Channel positions : Front: L C R, Side: L R, LFE
Sampling rate : 48.0 KHz
Compression mode : Lossy
Stream size : 32.6 MiB (5%)
Encoded date : UTC 2014-10-07 11:45:38
Tagged date : UTC 2014-10-07 11:45:38



СКАЧАТЬ ФИЛЬМ В КАЧЕСТВЕ 1280-720Р СО ЗВУКОМ 5.1 И 60 FPS ВО ВЕСЬ ЭКРАН .БЕЗ ЧЕРНЫХ ПОЛОС

Доступно только для пользователей

СКРИНШОТЫ






Прикрепления: 1110552.jpg(505Kb) · 8609350.jpg(471Kb) · 3398185.jpg(458Kb) · 3790571.jpg(477Kb) · 7912494.jpg(483Kb)


Сообщение отредактировал murrshako - Вторник, 23.12.2014, 16:44
 
murrshakoДата: Среда, 24.12.2014, 13:05 | Сообщение # 5
Группа: Администраторы
Сообщений: 2053
Репутация: 55
Статус: Offline


СМОТРЕТЬ ОНЛАЙН 4 СЕРИЮ РЕАЛИТИ ШОУ =КЛАН=В КАЧЕСТВЕ 1280-720Р ВО ВЕСЬ ЭКРАН БЕЗ ЧЕРНЫХ ПОЛОС
Страх и паника в доме барона - Клан. Выпуск 4




150\60FPS\Страх и паника в доме барона - Клан. Выпуск 4.mp4
Format : MPEG-4
Format profile : Base Media
Codec ID : isom
File size : 684 MiB
Duration : 41mn 1s
Overall bit rate mode : Variable
Overall bit rate : 2 331 Kbps
Encoded date : UTC 2014-10-07 11:45:38
Tagged date : UTC 2014-10-07 11:45:38
Writing application : Lavf54.63.104

Video
ID : 1
Format : AVC
Format/Info : Advanced Video Codec
Format profile : Main@L3.2
Format settings, CABAC : Yes
Format settings, ReFrames : 1 frame
Codec ID : avc1
Codec ID/Info : Advanced Video Coding
Duration : 41mn 1s
Bit rate : 2 206 Kbps
Width : 1 280 pixels
Height : 720 pixels
Display aspect ratio : 16:9
Frame rate mode : Constant
Frame rate : 60.000 fps
Color space : YUV
Chroma subsampling : 4:2:0
Bit depth : 8 bits
Scan type : Progressive
Bits/(Pixel*Frame) : 0.040
Stream size : 649 MiB (95%)
Writing library : x264 core 129
Encoding settings : cabac=1 / ref=1 / deblock=1:0:0 / analyse=0x1:0x1

Audio
ID : 2
Format : AAC
Format/Info : Advanced Audio Codec
Format profile : LC
Codec ID : 40
Duration : 41mn 1s
Duration_FirstFrame : 64ms
Bit rate mode : Variable
Bit rate : 111 Kbps
Maximum bit rate : 384 Kbps
Channel(s) : 6 channels
Channel positions : Front: L C R, Side: L R, LFE
Sampling rate : 48.0 KHz
Compression mode : Lossy
Stream size : 32.6 MiB (5%)
Encoded date : UTC 2014-10-07 11:45:38
Tagged date : UTC 2014-10-07 11:45:38

СКАЧАТЬ ФИЛЬМ В КАЧЕСТВЕ 1280-720Р СО ЗВУКОМ 5.1 И 60 FPS ВО ВЕСЬ ЭКРАН .БЕЗ ЧЕРНЫХ ПОЛОС

Доступно только для пользователей

ИЛИ

Доступно только для пользователей
СКРИНШОТЫ









Прикрепления: 7871184.jpg(435Kb) · 0074714.jpg(481Kb) · 1290745.jpg(497Kb) · 3172284.jpg(469Kb) · 9392007.jpg(471Kb)


Сообщение отредактировал murrshako - Среда, 24.12.2014, 13:07
 
ЦЫГАНЕ=ROMA=Cingaris=GYPSIES=CIGANOS=吉普賽人=ZINGARI=जिप्सФорум » ЦЫГАНСКИЙ РАЗДЕЛ » ФИЛЬМЫ НА ЦЫГАНСКУЮ ТЕМАТИКУ FULL HD 720P 60 FPS » Клан Реалити-шоу ICTV 2014 (спецпроект телеканала ICTV Украина)
Страница 1 из 212»
Поиск:

тест скорости интернета
| Copyright MyCorp © 2017 | |